Bit Torrent Scene a public file sharing platform Home Upload Categories Blog About

ARAVT - Ten Soldiers of Chinggis Khaan (2012)[720p.BRRip.x264.Dual Audio AC3/DTS][Napisy PL/Eng][Mongolian]

DOWNLOAD TORRENT DOWNLOAD DOWNLOAD ANONYMOUS

Posted by alE13 •1483 on July 19, 2013 in Movies » Adventure , downloaded 53 times , verified torrent

Size: 3.7 GB , Seeds: 0 , Peers: 1 ( Updated March 4, 2016 - Refresh )

* Download via Magnet Link , * To download files you need a Bittorrent Client , * How to download torrents from Bit Torrent Scene?

advertising ( remove )

External Info

Trailer | Wikipedia | Other Info

Internal Files

ARAVT - The Ten Soldiers of Chinggis Khaan (2012)
ARAVT - Ten Soldiers of Chinggis Khaan (2012)-alE13.mkv   3.67 GB
sample.mkv   32.34 MB
Nostalgie1.jpg   129.67 KB
txt.jpg   104.98 KB
___alE13___2013-07-19-07h58m33s248.jpg   88.37 KB
___alE13___2013-07-19-07h58m59s113.jpg   77.07 KB
1.jpg   60.11 KB
___alE13___2013-07-19-07h59m09s218.jpg   59.81 KB
___alE13___2013-07-19-07h59m22s78.jpg   56.34 KB
ARAVT - Ten Soldiers of Chinggis Khaan (2012)-alE13_pl.srt   35 KB
ARAVT - Ten Soldiers of Chinggis Khaan (2012)-alE13_eng.srt   34.98 KB
Torrent downloaded from alE13 torrents at BTScene.org.txt   120 Byte

Hash Code

05aac957b788cc26bf1576f1b2cf3870d35614d9

Description

SCREENSHOT

Jest to premiera tego filmu z napisami polskimi.

produkcja: Mongolia
data: 2012
reżyseria: D. Jolbayar, U. Shagdarsuren
scenariusz: O. Erdene
gatunek: Historyczny, Akcja
czas: 01:32:05

opis:

A little known fact is that Chinggis Khaan, better known as Genghis Khan, would collect orphans from his bloody
battlefields and have his own mother raise them. These adopted brothers grew up to become his most loyal officials
and advisers. Khaan organised his Mongol soldiers into groups according to the decimal system. Soldiers were
arranged in units of 10 ("aravt"), 100 ("zuut"), 1,000 ("minghan") and 10,000 ("tumen"). Each unit had an appointed
leader reporting to a larger unit. A 10-person "aravt" unit is ordered by Khaan to locate a skilled doctor who lives
in a forest. En route, they discover an abandoned baby. He is in fact the child of an enemy warrior who gives pursuit,
even though they have saved the child's life. Whilst protecting the child from attacks from enemy soldiers, the members
of the "aravt" must also complete their mission. Through their actions, they demonstrate the benevolence and bravery
of Mongol warriors as the final battle closes in.

Film opowiada o dziesięciu wojownikach Czyngis-Khana, którzy na jego rozkaz mają sprowadzić "Mistrza Lekarza", do jego armii
którą dziesiątkuje dżuma. Film naprawdę bardzo dobry bez jakichś latających rycerzy ,co mamy często w chińskich produkcjach.

Serdecznie polecam, takie troszkę inne kino, kino mongolskie.

SCREENSHOT
SCREENSHOT
SCREENSHOT
SCREENSHOT

obsada:

T. Altanshagai ... Uujim
B. Amarcanihan ... Shijirsanaa
C. Ariunbyamba ... Bukha
Ayurdadi ... Hukhtumur

dane techniczne:

ARAVT - Ten Soldiers of Chinggis Khaan (2012)-alE13 (1).mkv
Format : Matroska
Format version : Version 4 / Version 2
File size : 3.67 GiB
Duration : 1h 32mn
Overall bit rate : 5 701 Kbps
Movie name : ARAVT - The Ten Soldiers of Chinggis Khaan (2012)_Rip.-alE13
Encoded date : UTC 2013-07-19 05:41:22
Writing application : mkvmerge v6.3.0
Writing library : libebml v1.3.0 + libmatroska v1.4.0

Video
ID : 1
Format : AVC
Format/Info : Advanced Video Codec
Format profile : High@L3.1
Format settings, CABAC : Yes
Format settings, ReFrames : 2 frames
Codec ID : V_MPEG4/ISO/AVC
Duration : 1h 32mn
Bit rate : 3 550 Kbps
Width : 1 280 pixels
Height : 536 pixels
Display aspect ratio : 2.40:1
Frame rate mode : Constant
Frame rate : 24.000 fps
Color space : YUV
Chroma subsampling : 4:2:0
Bit depth : 8 bits
Scan type : Progressive
Bits/(Pixel*Frame) : 0.216
Stream size : 2.21 GiB (60%)
Writing library : x264 core 112 r1834 a51816a

Audio #1
ID : 2
Format : AC-3
Format/Info : Audio Coding 3
Mode extension : CM (complete main)
Format settings, Endianness : Big
Codec ID : A_AC3
Duration : 1h 32mn
Bit rate mode : Constant
Bit rate : 640 Kbps
Channel(s) : 6 channels
Channel positions : Front: L C R, Side: L R, LFE
Sampling rate : 48.0 KHz
Bit depth : 16 bits
Compression mode : Lossy
Stream size : 422 MiB (11%)
Title : Genghis-The Legend of the Ten (2012)-alE13_AC3 @ 192 Kbps
Language : Mongolian
Audio #2
ID : 3
Format : DTS
Format/Info : Digital Theater Systems
Mode : 16
Format settings, Endianness : Big
Codec ID : A_DTS
Duration : 1h 32mn
Bit rate mode : Constant
Bit rate : 1 510 Kbps
Channel(s) : 6 channels
Channel positions : Front: L C R, Side: L R, LFE
Sampling rate : 48.0 KHz
Bit depth : 24 bits
Compression mode : Lossy
Stream size : 994 MiB (26%)
Title : Genghis-The Legend of the Ten (2012)-alE13_DTS@ 1 510 Kbps
Language : Mongolian

Text #1
ID : 4
Format : UTF-8
Codec ID : S_TEXT/UTF8
Codec ID/Info : UTF-8 Plain Text
Title : ARAVT - Ten Soldiers of Chinggis Khaan (2012)-alE13
Language : Polish

Text #2
ID : 5
Format : UTF-8
Codec ID : S_TEXT/UTF8
Codec ID/Info : UTF-8 Plain Text
Title : ARAVT - Ten Soldiers of Chinggis Khaan (2012)-alE13

Scrape History ( seeds + peers )

Trackers

Refresh Leechers : Updated March 4, 2016

1. http://fr33dom.h33t.com:3310/announce

2. http://divxhunt.me/announce.php

3. http://pimp4003-torrents.me:2710/announce.php

4. http://p2pdl.com:2710/announce

5. http://www.h33t.com:3310/announce

6. udp://fr33dom.h33t.com:3310/announce

7. udp://tracker.openbittorrent.com:80

8. udp://9.rarbg.com:2710/announce

9. udp://tracker.istole.it:80

10. udp://tracker.publicbt.com:80

Comments

You must log in to add a comment.

Embed Code

Sharing Widget

Top Movies ( auto generated report )

FILENAME SIZE SEEDS PEERS ADDED UPD
[i] Keanu 2016 FRENCH BDRip XviD-ViVi 703.57 MB 4851 1087 1 day 21 hours
[i] Madaari (2016) Hindi 1CD DesiScr x264 AAC - Downloadhub
Movies - Thriller , Quality: Audio 8/10 - Video 7/10
718.57 MB 4312 3471 4 days 3 days
[i] Star Trek Beyond (2016) ENG Cam V2 XviD UnKnOwN 1.51 GB 3127 1427 1 day 13 hours
[i] Robinson.Crusoe.2016.BRRip.XviD.AC3-EVO
Movies - Animation , Quality: Audio 8/10 - Video 9/10
1.41 GB 2967 4014 2 days 2 days
[i] Good.Kids.2016.DVDRip.XViD-ETRG 711.3 MB 2433 2397 3 days 2 days
[i] Viral.2016.DVDRip.XviD.AC3-EVO 1.37 GB 2131 2077 2 days 1 day
[i] Kabali (2016) 2CD x264 HD-CAM Rip Dual Audio Hindi-Tamil AAC -DDR-Exclusive 1.33 GB 2129 2727 1 day 13 hours
[i] The.Harvesting.2016.HDRip.XviD.AC3-EVO 1.37 GB 2019 1844 4 days 3 days
[i] Star Trek Beyond 2016 CAM UnKnOwN
Movies - Action , Quality: Audio 8/10 - Video 8/10
871.3 MB 1863 131 4 days 11 hours
[i] L Origine Des Especes 2016 FRENCH WEBRip XviD-ACOOL 686.32 MB 1846 429 4 days 3 days
advertising ( remove )