Bit Torrent Scene a public file sharing platform Home Upload Categories Blog About

advertising ( remove )

Battle of the Year (2013) ENGLISH BRRip XviD-TMB

DOWNLOAD TORRENT DOWNLOAD DOWNLOAD ANONYMOUS

Posted on June 25, 2013 in Movies » Romance

Size: 861 MB , Seeds: 0 , Peers: 0 ( Updated July 8, 2016 - Refresh )

* Download via Magnet Link , * To download files you need a Bittorrent Client , * How to download torrents from Bit Torrent Scene?

advertising ( remove )

Internal Files

Battle of the Year (2013) ENGLISH BRRip XviD-TMB
Battle of the Year (2013) ENGLISH BRRip XviD-TMB.avi   859.1 MB
Battle of the Year (2013) ENGLISH BRRip XviD-TMB.nfo   2.03 KB
www.SceneRockers.Net.txt   31 Byte

Hash Code

2fac24efe3c468dc49ad6c3c7c8eac12207add4f

Description





SCREENSHOT



NAME RELEASE:Battle of the Year (2013) ENGLISH BRRip XviD-TMB





WEB INFO:



http://www.imdb.com/title/tt1532958/



Format : MPEG-TS

File size : 800 MBs

Duration : 1h 33mn

Overall bit rate : 9 236 Kbps



Video

ID : 2514 (0x9D2)

Menu ID : 1 (0x1)

Format : AVC

Format/Info : Advanced Video Codec

Format profile : Main@L4.0

Format settings, CABAC : Yes

Format settings, ReFrames : 4 frames

Duration : 1h 33mn

Bit rate : 8 403 Kbps

Width : 1 920 pixels

Height : 1 080 pixels

Display aspect ratio : 16:9

Frame rate : 25.000 fps

Resolution : 8 bits

Colorimetry : 4:2:0

Scan type : MBAFF

Bits/(Pixel*Frame) : 0.162

Stream size : 5.51 GiB (91%)

Color primaries : BT.709-5, BT.1361, IEC 61966-2-4, SMPTE RP177

Transfer characteristics : BT.709-5, BT.1361

Matrix coefficients : BT.709-5, BT.1361, IEC 61966-2-4 709, SMPTE RP177



Audio

ID : 2515 (0x9D3)

Menu ID : 1 (0x1)

Format : AC-3

Format/Info : Audio Coding 3

Duration : 1h 33mn

Bit rate mode : Constant

Bit rate : 192 Kbps

Channel(s) : 2 channels

Channel positions : Front: L R

Sampling rate : 48.0 KHz

Stream size : 129 MiB (2%)

Language : ENGLISH





STORY LINE:



Battle of the Year attracts all the best teams from around the world, but the Americans haven't won in fifteen years. Dante enlists Blake to assemble a team of the best dancers and bring the Trophy back to America where it started.







IMAGES:





SCREENSHOT



SCREENSHOT



SCREENSHOT



SCREENSHOT



SCREENSHOT



SCREENSHOT


Torrent location

http://kickass.to/battle-of-the-year-2013-english-brrip-xvid-tmb-t7550196.html

Scrape History ( seeds + peers )

Trackers

Refresh Leechers : Updated July 8, 2016

1. udp://tracker.publicbt.com:80/announce

2. udp://tracker.openbittorrent.com:80/announce

3. udp://fr33domtracker.h33t.com:3310/announce

4. udp://tracker.istole.it:80/announce

5. http://exodus.desync.com/announce

6. udp://ipv4.tracker.harry.lu:80/announce

7. udp://9.rarbg.me:2710/announce

8. udp://9.rarbg.com:2710/announce

9. udp://fr33dom.h33t.com:3310/announce

10. http://fr33dom.h33t.com:3310/announce

Comments

You must log in to add a comment.

Embed Code

Sharing Widget

Related torrents

FILENAME SIZE SEEDS PEERS ADDED UPD
[i] Battle Of The Year 2013 FRENCH BRRip XviD-ArRoWs 704.5 MB 49 4 2 years 8 months
[i]
[i]
Battle of the Year [2013] BRRip XViD-ETRG
Movies - Drama , Quality: Audio 8/10 - Video 8/10
704.57 MB 8 3 2 years 5 months
[i] Battle of the Year 2013 720p BluRay H264 AAC-RARBG 1.33 GB 5 0 2 months 1 week
[i] Kim Goldman - Cant Forgive My 20-Year Battle with O.J. Simpson.epub Gooner 396.8 KB 3 0 1 year 1 month
[i]
[i]
Battle Of The Year 2013 CAM XViD UNiQUE
Movies - Drama , Quality: Audio 6/10 - Video 6/10
1.4 GB 2 0 2 years 5 months
[i] Battle.of.the.Year.2013.720p.BluRay.x264-GECKOS [PublicHD] 4.37 GB 2 0 2 years 5 months
[i] Battle Of The Year - La vittoria è in ballo (2013) [XviD - Ita Ac3 5.1][TNT Village]
posted by IncTNT in Movies - Sports Related
1.5 GB 2 1 1 year 4 months
[i] Battle of the Year 2013 1080p BRRip x264 DTS-JYK 2.77 GB 2 3 1 year 5 months
[i] Battle of the Year (2013) BluRay 1080p 5.1CH x264 Ganool 1.5 GB 1 0 2 years 5 months
[i]
[i]
Battle of the Year (2013) 1080p BrRip x264 - YIFY
Movies - Drama , Quality: Audio 9/10 - Video 9/10
1.65 GB 1 0 2 years 5 months

Top Movies ( auto generated report )

FILENAME SIZE SEEDS PEERS ADDED UPD
[i] Now You See Me 2 (2016) 1080p BluRay - 6CH - 2.2GB - ShAaNiG 2.3 GB 6579 3250 4 days 3 days
[i] Alleycats.2016.HDRip.XViD-ETRG 707.3 MB 3091 2301 4 days 3 days
[i] Genius.2016.HDRip.XviD.AC3-EVO 1.39 GB 2876 2179 18 hours 16 hours
[i] Black.Road.2016.HDRip.XviD.AC3-EVO 1.36 GB 2721 2856 18 hours 16 hours
[i] Billionaire.Ransom.2016.HDRip.XViD-ETRG 707.3 MB 2370 1282 4 days 3 days
[i] The.Darkness.2016.HDRip.XViD-ETRG 710.3 MB 2230 1288 18 hours 16 hours
[i] Girls.for.Sale.2016.720p.WEBRip.x264.AAC-ETRG 684.3 MB 2137 941 1 day 9 hours
[i] Nerve 2016 TSHQ VOSE 569.57 MB 1975 923 9 hours 9 hours
[i] Now You See Me 2 (2016) 1080p BluRay 6CH 2.4GB - MkvCage 2.46 GB 1757 1534 5 days 4 days
[i] Ride Along 2 2016 1080p BluRay x264 DTS-JYK 2.56 GB 1647 1157 4 days 3 days
advertising ( remove )