Bit Torrent Scene a public file sharing platform Home Upload Categories Blog About

advertising ( remove )

Don McKay (2010) HINDI MOVIE DVD RIP DivX AVI - MNAS

DOWNLOAD TORRENT DOWNLOAD DOWNLOAD ANONYMOUS

Posted on May 12, 2010 in Movies » Misc

Size: 696.57 MB , Seeds: 0 , Peers: 0 ( Updated November 19, 2015 - Refresh )

* Download via Magnet Link , * To download files you need a Bittorrent Client , * How to download torrents from Bit Torrent Scene?

advertising ( remove )

External Info

Trailer | Wikipedia | Other Info

Internal Files

Don McKay (2010) HINDI MOVIE DVD RIP DivX AVI - MNAS
Don McKay (2010) HINDI MOVIE DVD RIP DivX AVI - MNAS.avi   696.42 MB
info.txt   1.36 KB

Hash Code

11a57c1d9f4fdd5958265b5f160f316428566dfe

Description


Format : AVI
Format/Info : Audio Video Interleave
Overall bit rate : 1 502 Kbps


Video
ID : 0
Format : MPEG-4 Visual
Format profile : AdvancedSimple[@]L5
Format settings, BVOP : Yes
Format settings, QPel : No
Format settings, GMC : No warppoints
Format settings, Matrix : Default (H.263)
Codec ID : XVID
Codec ID/Hint : XviD
Bit rate : 1 363 Kbps
Width : 608 pixels
Height : 256 pixels
Display aspect ratio : 2.35:1
Frame rate : 25.000 fps
Resolution : 24 bits
Colorimetry : 4:2:0
Scan type : Progressive
Bits/(Pixel*Frame) : 0.350
Stream size : 1.24 GiB (91%)
Writing library : XviD 1.2.1 (UTC 2008-12-04)

Audio
ID : 1
Format : MPEG Audio
Format version : Version 1
Format profile : Layer 3
Codec ID : 55
Codec ID/Hint : MP3
Duration : 2h 10mn
Bit rate mode : Variable
Bit rate : 128 Kbps
Channel(s) : 2 channels
Sampling rate : 48.0 KHz
Resolution : 16 bits
Stream size : 118 MiB (8%)
Alignment : Aligned on interleaves
Interleave, duration : 24 ms (0.60 video frame)
Interleave, preload duration : 231 ms


Scrape History ( seeds + peers )

Trackers

Refresh Leechers : Updated November 19, 2015

1. http://tracker.thepiratebay.org/announce

2. udp://tracker.thepiratebay.org:80/announce

3. http://pow7.com:80/announce

4. http://nemesis.1337x.org/announce

5. http://genesis.1337x.org:1337/announce

6. udp://denis.stalker.h3q.com:6969/announce

7. http://denis.stalker.h3q.com:6969/announce

8. http://tracker.publicbt.com/announce

9. udp://tracker.publicbt.com:80/announce

10. udp://tracker.openbittorrent.com:80/announce

11. http://tracker.openbittorrent.com/announce

Comments

You must log in to add a comment.

Embed Code

Sharing Widget

Top Movies ( auto generated report )

FILENAME SIZE SEEDS PEERS ADDED UPD
[i] Now You See Me 2 (2016) 1080p BluRay - 6CH - 2.2GB - ShAaNiG 2.3 GB 6579 3250 4 days 3 days
[i] Sausage.Party.2016.HDCam.HQ-Mic.Xvid.AC3.UnKnOwN.Hive-CM8 1.31 GB 5392 3118 4 days 3 days
[i] Alleycats.2016.HDRip.XViD-ETRG 707.3 MB 3091 2301 3 days 2 days
[i] Genius.2016.HDRip.XviD.AC3-EVO 1.39 GB 2876 2179 3 hours 1 hour
[i] Black.Road.2016.HDRip.XviD.AC3-EVO 1.36 GB 2721 2856 3 hours 1 hour
[i] Beyond.the.Call.of.Duty.2016.DVDRip.XviD-EVO 1.2 GB 2402 1155 4 days 3 days
[i] Billionaire.Ransom.2016.HDRip.XViD-ETRG 707.3 MB 2370 1282 4 days 3 days
[i] The.Darkness.2016.HDRip.XViD-ETRG 710.3 MB 2230 1288 3 hours 1 hour
[i] Girls.for.Sale.2016.720p.WEBRip.x264.AAC-ETRG 684.3 MB 1839 1199 18 hours 3 hours
[i] Now You See Me 2 (2016) 1080p BluRay 6CH 2.4GB - MkvCage 2.46 GB 1757 1534 4 days 3 days
advertising ( remove )