Bit Torrent Scene a public file sharing platform Home Upload Categories About

Fuck Hard 18 - Ashlyn Rae (XXX)(iPod,PSP,Zune)

DOWNLOAD TORRENT DOWNLOAD DOWNLOAD ANONYMOUS

Posted on February 6, 2011 in Misc » Others

Size: 165.29 MB , Seeds: 0 , Peers: 1 ( Updated December 12, 2015 - Refresh )

* Download via Magnet Link , * To download files you need a Bittorrent Client , * How to download torrents from Bit Torrent Scene?

Loading...

Internal Files

Fuck Hard 18 - Ashlyn Rae
Ashlyn Rae Screen.jpg   224.13 KB
Ashlyn Rae.m4v   164.99 MB

Hash Code

369851bd4879bb817cb86658140bc751c503d0c0

Description


Screenshot

http://84448b75.drstickyfingers.com

Video
ID : 1
Format : AVC
Format/Info : Advanced Video Codec
Format profile : Baseline@L2.1
Format settings, CABAC : No
Format settings, ReFrames : 2 frames
Codec ID : avc1
Codec ID/Info : Advanced Video Coding
Duration : 46mn 10s
Bit rate mode : Variable
Bit rate : 400 Kbps
Width : 480 pixels
Height : 272 pixels
Display aspect ratio : 16:9
Frame rate mode : Variable
Frame rate : 23.976 fps
Minimum frame rate : 23.974 fps
Maximum frame rate : 23.981 fps
Color space : YUV
Chroma subsampling : 4:2:0
Bit depth : 8 bits
Scan type : Progressive
Bits/(Pixel*Frame) : 0.128
Stream size : 132 MiB (80%)
Writing library : x264 core 112

Audio
ID : 2
Format : AAC
Format/Info : Advanced Audio Codec
Format profile : LC
Codec ID : 40
Duration : 46mn 11s
Bit rate mode : Variable
Bit rate : 96.0 Kbps
Maximum bit rate : 109 Kbps
Channel(s) : 2 channels
Channel positions : Front: L R
Sampling rate : 48.0 KHz
Compression mode : Lossy
Stream size : 31.7 MiB (19%)
Language : English

Screenshot

http://84448b75.drstickyfingers.com

Trackers

Refresh Leechers : Updated December 12, 2015

1. http://tracker.thepiratebay.org/announce

2. udp://tracker.thepiratebay.org:80/announce

3. udp://tracker.openbittorrent.com:80/announce

4. udp://tracker.publicbt.com:80/announce

5. http://tracker.publicbt.com/announce

6. http://exodus.1337x.org/announce

Comments

You must log in to add a comment.

Embed Code

Sharing Widget

Top Misc ( auto generated report )

FILENAME SIZE SEEDS PEERS ADDED UPD
[i] Howard Stern Show NOV 14 2016 Mon 199.82 MB 142 16 2 weeks 1 week
[i] Lynda - Excel 2016 - Financial Functions in Depth 308.65 MB 56 8 2 weeks 4 days
[i] Howard Stern Show NOV 16 2016 Wed 195.82 MB 191 31 2 weeks 2 weeks
[i] Lynda - HTML Essential Training 2016 1.03 GB 44 10 2 weeks 4 days
[i] Lynda - Linux Bash Shell and Scripts 303.15 MB 49 8 2 weeks 4 days
[i] Lynda - Learn Microsoft SQL Server 2016 The Basics 217.32 MB 49 4 2 weeks 4 days
[i] Lynda - jQuery Essential Training (2016) 756.3 MB 45 7 2 weeks 6 days
[i] Lynda - Design Aesthetics for the Web 685.3 MB 27 4 2 weeks 4 days
[i] Lynda - Instagram for Business (2016) 161.82 MB 52 4 2 weeks 4 days
[i] 140 Ultra HD 4K Stunning Collection of Wallpapers [Set 15][nico1899] 486.07 MB 16 7 2 weeks 6 days
advertising ( remove )