Bit Torrent Scene a public file sharing platform Home Upload Categories Blog About

advertising ( remove )

Herbert Vesely - Egon Schiele - Exzesse (1981)

DOWNLOAD TORRENT DOWNLOAD DOWNLOAD ANONYMOUS

Posted on April 1, 2011 in Movies » Misc

Size: 1.37 GB , Seeds: 2 , Peers: 0 ( Updated December 18, 2015 - Refresh )

* Download via Magnet Link , * To download files you need a Bittorrent Client , * How to download torrents from Bit Torrent Scene?

advertising ( remove )

External Info

Trailer | Wikipedia | Other Info

Internal Files

Egon Schiele - Exzesse
Egon Schiele - Exzesse.avi   1.37 GB
Egon Schiele - Exzesse.deu.srt   63.67 KB
Egon Schiele - Exzesse.ptb.srt   59.87 KB
Egon Schiele - Exzesse.eng.srt   57.33 KB

Hash Code

885c2c240005e7ee9e412f9cd31932d0b3764a4a

Description


The strange life of Austrian painter Egon Schiele, one of the fathers of expressionism, is chronicled in this dramatic biography. He began his career during his stint as a soldier in WWI. He gained notoriety for his pornographic nudes and was eventually arrested for creating them. At the same time, his first love dies, and his next lover dumps him. His paintings finally become popular at the war's end. Unfortunately, he dies of a strange disease before he can enjoy his success.

General
Complete name : Egon Schiele - Exzesse.avi
Format : AVI
Format/Info : Audio Video Interleave
File size : 1.37 GiB
Duration : 1h 29mn
Overall bit rate : 2 193 Kbps
Writing application : VirtualDubMod 1.5.10.2 (build 2540/release)
Writing library : VirtualDubMod build 2540/release
Video #0
ID : 0
Format : MPEG-4 Visual
Format profile : AdvancedSimple@L5
Format settings, BVOP : Yes
Format settings, QPel : No
Format settings, GMC : No warppoints
Format settings, Matrix : Default (MPEG)
Codec ID : XVID
Codec ID/Hint : XviD
Duration : 1h 29mn
Bit rate : 1 794 Kbps
Width : 720 pixels
Height : 392 pixels
Display aspect ratio : 16:9
Frame rate : 25.000 fps
Resolution : 24 bits
Colorimetry : 4:2:0
Scan type : Progressive
Bits/(Pixel*Frame) : 0.254
Stream size : 1.12 GiB (82%)
Writing library : XviD 1.2.1 (UTC 2008-12-04)
Audio #1
ID : 1
Format : AC-3
Format/Info : Audio Coding 3
Codec ID : 2000
Duration : 1h 29mn
Bit rate mode : Constant
Bit rate : 192 Kbps
Channel(s) : 2 channels
Channel positions : L R
Sampling rate : 48.0 KHz
Stream size : 123 MiB (9%)
Alignment : Split accross interleaves
Interleave, duration : 40 ms (1.00 video frame)
Interleave, preload duration : 500 ms
Audio #2
ID : 2
Format : AC-3
Format/Info : Audio Coding 3
Codec ID : 2000
Duration : 1h 29mn
Bit rate mode : Constant
Bit rate : 192 Kbps
Channel(s) : 2 channels
Channel positions : L R
Sampling rate : 48.0 KHz
Stream size : 123 MiB (9%)
Alignment : Split accross interleaves
Interleave, duration : 40 ms (1.00 video frame)
Interleave, preload duration : 500 ms

http://www.imdb.com/title/tt0082311/

Dual audio, German and French; German, English and Portuguese subtitles

Posted originally at KG by crock99, whom we thank

Herbert Vesely - Egon Schiele - Exzesse (1981)

Scrape History ( seeds + peers )

Trackers

Refresh Leechers : Updated December 18, 2015

1. http://tracker.thepiratebay.org/announce

2. udp://tracker.thepiratebay.org:80/announce

3. udp://tracker.openbittorrent.com:80/announce

4. udp://tracker.torrentbox.com:2710/announce

5. http://tracker.torrentbox.com:2710/announce

6. udp://tracker.publicbt.com:80/announce

7. http://tracker.publicbt.com/announce

8. udp://tracker.ccc.de:80/announce

9. http://tracker.ccc.de/announce

10. http://tracker.irc.su/announce

11. http://pow7.com/announce

12. http://nemesis.1337x.org/announce

13. http://exodus.1337x.org/announce

14. http://www.torrentsnipe.info:2701/announce

15. http://www.torrent-downloads.to:2710/announce

16. http://www.sumotracker.com/announce

17. http://tracker.torrentfr.org:56666/announce

18. http://torrent-download.to:5869/announce

19. http://tracker.bittorrent.am/announce

Comments

You must log in to add a comment.

Embed Code

Sharing Widget

Top Movies ( auto generated report )

FILENAME SIZE SEEDS PEERS ADDED UPD
[i] Now You See Me 2 (2016) 1080p BluRay - 6CH - 2.2GB - ShAaNiG 2.3 GB 6579 3250 4 days 3 days
[i] Alleycats.2016.HDRip.XViD-ETRG 707.3 MB 3091 2301 4 days 3 days
[i] Genius.2016.HDRip.XviD.AC3-EVO 1.39 GB 2876 2179 20 hours 18 hours
[i] Black.Road.2016.HDRip.XviD.AC3-EVO 1.36 GB 2721 2856 20 hours 18 hours
[i] Billionaire.Ransom.2016.HDRip.XViD-ETRG 707.3 MB 2370 1282 4 days 3 days
[i] The.Darkness.2016.HDRip.XViD-ETRG 710.3 MB 2230 1288 20 hours 18 hours
[i] Girls.for.Sale.2016.720p.WEBRip.x264.AAC-ETRG 684.3 MB 2137 941 1 day 11 hours
[i] Nerve 2016 TSHQ VOSE 569.57 MB 1975 923 11 hours 11 hours
[i] Now You See Me 2 (2016) 1080p BluRay 6CH 2.4GB - MkvCage 2.46 GB 1757 1534 5 days 4 days
[i] Ride Along 2 2016 1080p BluRay x264 DTS-JYK 2.56 GB 1647 1157 4 days 3 days
advertising ( remove )