Bit Torrent Scene a public file sharing platform Home Upload Categories Blog About

advertising ( remove )

Hum Mar Jayenge Aashiqui 2 Full Song 1080p HD (2013) ...[rajputana].mp4

DOWNLOAD TORRENT DOWNLOAD DOWNLOAD ANONYMOUS

Posted on April 28, 2013 in Music » Misc , verified torrent

Size: 72.66 MB , Seeds: 0 , Peers: 0 ( Updated February 25, 2016 - Refresh )

* Download via Magnet Link , * To download files you need a Bittorrent Client , * How to download torrents from Bit Torrent Scene?

advertising ( remove )

External Info

Trailer | Wikipedia | Other Info

Internal Files

Hum Mar Jayenge Aashiqui 2 Full Song 1080p HD (2013) ...[rajputana].mp4
Hum Mar Jayenge Aashiqui 2 Full Song 1080p HD (2013) ...[rajputana].mp4   72.55 MB

Hash Code

578d089e4d5edec48a0f67b012cc4a182ad86ac0

Description



SCREENSHOT



SCREENSHOT



SCREENSHOT



SCREENSHOT



SCREENSHOT



SCREENSHOT



SCREENSHOT



Hum Mar Jayenge Aashiqui 2 (2013)



SCREENSHOT



Format : MPEG-4

Format profile : Base Media / Version 2

Codec ID : mp4

File size : 72.5 MB

Duration : 5mn 3s

Overall bit rate mode : Variable

Overall bit rate : 2 004 Kbps





Video #1

ID : 1

Format : AVC

Format/Info : Advanced Video Codec

Format profile : High@L3.1

Format settings, CABAC : Yes

Format settings, ReFrames : 1 frame

Codec ID : avc1

Codec ID/Info : Advanced Video Coding

Duration : 5mn 3s

Bit rate : 1 810 Kbps

Maximum bit rate : 5 492 Kbps

Width : 1 280 pixels

Height : 544 pixels

Display aspect ratio : 2.35:1

Frame rate mode : Constant

Frame rate : 14.985 fps

Color space : YUV

Chroma subsampling : 4:2:0

Bit depth : 8 bits

Scan type : Progressive

Bits/(Pixel*Frame) : 0.173

Stream size : 65.5 MiB (90%)

Tagged date : UTC 2013-04-11 21:59:12


SCREENSHOT

SCREENSHOT

SCREENSHOT

SCREENSHOT

Audio #2

ID : 2

Format : AAC

Format/Info : Advanced Audio Codec

Format profile : LC

Codec ID : 40

Duration : 5mn 3s

Bit rate mode : Variable

Bit rate : 192 Kbps

Maximum bit rate : 202 Kbps

Channel(s) : 2 channels

Channel positions : Front: L R

Sampling rate : 44.1 KHz

Compression mode : Lossy

Stream size : 6.95 MiB (10%)

Title : IsoMedia File Produced by Google, 5-11-2011

Encoded date : UTC 2013-04-11 21:59:11

Tagged date : UTC 2013-04-11 21:59:12




SCREENSHOT



SCREENSHOT



SCREENSHOT



SCREENSHOT



SCREENSHOT



SCREENSHOT



SCREENSHOT



SCREENSHOT



SCREENSHOT



SCREENSHOT



SCREENSHOT



SCREENSHOT

Torrent location

http://extratorrent.com/torrent/3055027/Hum+Mar+Jayenge+Aashiqui+2+Full+Song+1080p+HD+%282013%29+...%5Brajputana%5D.mp4.html

Scrape History ( seeds + peers )

Trackers

Refresh Leechers : Updated February 25, 2016

1. http://exodus.desync.com/announce

2. http://fr33dom.h33t.com:3310/announce

3. udp://tracker.yify-torrents.com/announce

4. http://exodus.desync.com:6969/announce

5. udp://ipv4.tracker.harry.lu:80/announce

6. udp://tracker.istole.it:80/announce

7. udp://tracker.publicbt.com:80/announce

8. udp://9.rarbg.com:2710/announce

9. http://94.228.192.98/announce

10. udp://tracker.openbittorrent.com:80/announce

11. udp://11.rarbg.com:80/announce

12. udp://fr33domtracker.h33t.com:3310/announce

13. udp://10.rarbg.com/announce

14. http://tracker.coppersurfer.tk:6969/announce

15. http://tracker.7ece.co.uk:6969/announce

Comments

You must log in to add a comment.

Embed Code

Sharing Widget

Top Music ( auto generated report )

FILENAME SIZE SEEDS PEERS ADDED UPD
[i] frank ocean blonde 2016 320 138.82 MB 1899 200 1 day 20 hours
[i] Frank Ocean - Blonde (2016) [MP3~320Kbps]~[Hunter] [FRG] 138.7 MB 754 57 2 days 3 hours
[i] Frank Ocean Endless Visual Album 480p 2016 181.33 MB 510 42 1 day 19 hours
[i] KoЯn- KoЯn Again Still Insane (EP) 2016 320ak 64.02 MB 277 63 1 day 22 hours
[i] New.. UK Top 40 Singles August 19th 2016 @320, from BJtheDJ 339.65 MB 231 36 4 days 3 days
[i] Frank Ocean Blonde 2016 iTunes AAC 124.28 MB 202 23 1 day 19 hours
[i] Pink Floyd - Wish You Were Here - 320kbps 98.54 MB 164 8 4 days 3 days
[i] Queen - A Night At the Opera (1975) 320kbps 96.47 MB 143 5 4 days 3 days
[i] Sigur Ros - Agaetis Byrjun - 320kbps 160.82 MB 142 10 1 day 18 hours
[i] Sigur Ros - Takk... - 320kbps 147.82 MB 137 6 1 day 18 hours
advertising ( remove )