Bit Torrent Scene a public file sharing platform Home Upload Categories Blog About

advertising ( remove )

Ice age 3 [dublat romana]

DOWNLOAD TORRENT DOWNLOAD DOWNLOAD ANONYMOUS

Posted on December 7, 2010 in Movies » Misc

Size: 865.3 MB , Seeds: 0 , Peers: 0 ( Updated December 5, 2015 - Refresh )

* Download via Magnet Link , * To download files you need a Bittorrent Client , * How to download torrents from Bit Torrent Scene?

advertising ( remove )

External Info

Trailer | Wikipedia | Other Info

Internal Files

Ice age 3 [dublat romana]
Ice age 3 [dublat romana].avi   864.7 MB
info.txt   1.68 KB

Hash Code

02402e5c1970d50185ebd46cbceddc63ddfc0a10

Description


Format : MPEG-4 Visual
Format profile : Simple@L3
Format settings, BVOP : No
Format settings, QPel : No
Format settings, GMC : No warppoints
Format settings, Matrix : Default (H.263)
Codec ID : XVID
Codec ID/Hint : XviD
Duration : 1h 30mn
Bit rate : 1 199 Kbps
Width : 640 pixels
Height : 480 pixels
Display aspect ratio : 4:3
Frame rate : 25.000 fps
Resolution : 8 bits
Colorimetry : 4:2:0
Scan type : Progressive
Bits/(Pixel*Frame) : 0.156
Stream size : 774 MiB (89%)
Writing library : XviD 1.1.0 Beta2 (UTC 2005-04-04)

Audio
ID : 1
Format : MPEG Audio
Format version : Version 1
Format profile : Layer 3
Mode : Joint stereo
Format_Settings_ModeExtension : MS Stereo
Codec ID : 55
Codec ID/Hint : MP3
Duration : 1h 30mn
Bit rate mode : Constant
Bit rate : 128 Kbps
Channel(s) : 2 channels
Sampling rate : 48.0 KHz
Stream size : 82.6 MiB (10%)
Alignment : Aligned on interleaves
Interleave, duration : 24 ms (0.60 video frame)
Writing library : LAME3.96.1

Scrape History ( seeds + peers )

Trackers

Refresh Leechers : Updated December 5, 2015

1. http://tracker.thepiratebay.org/announce

2. udp://tracker.thepiratebay.org:80/announce

3. http://tracker.openbittorrent.com/announce

4. udp://tracker.openbittorrent.com:80/announce

5. udp://tracker.publicbt.com:80/announce

6. http://tracker.publicbt.com/announce

Comments

You must log in to add a comment.

Embed Code

Sharing Widget

Top Movies ( auto generated report )

FILENAME SIZE SEEDS PEERS ADDED UPD
[i] Now You See Me 2 (2016) 1080p BluRay - 6CH - 2.2GB - ShAaNiG 2.3 GB 10197 3719 5 days 3 hours
[i] Alleycats.2016.HDRip.XViD-ETRG 707.3 MB 1101 421 5 days 4 hours
[i] Genius.2016.HDRip.XviD.AC3-EVO 1.39 GB 2250 1125 1 day 19 hours
[i] Black.Road.2016.HDRip.XviD.AC3-EVO 1.36 GB 2010 1160 1 day 19 hours
[i] Billionaire.Ransom.2016.HDRip.XViD-ETRG 707.3 MB 2370 1282 5 days 4 days
[i] The.Darkness.2016.HDRip.XViD-ETRG 710.3 MB 1615 766 1 day 19 hours
[i] Girls.for.Sale.2016.720p.WEBRip.x264.AAC-ETRG 684.3 MB 2137 941 2 days 1 day
[i] Nerve 2016 TSHQ VOSE 569.57 MB 1999 462 1 day 10 hours
[i] Ride Along 2 2016 1080p BluRay x264 DTS-JYK 2.56 GB 1647 1157 5 days 4 days
[i] The.Emeryville.Experiments.2016.HDRip.XviD.AC3-EVO 1.33 GB 1601 1702 4 days 4 days
advertising ( remove )