Bit Torrent Scene a public file sharing platform Home Upload Categories Blog About

advertising ( remove )

John Carter DVDRIP LATINO

DOWNLOAD TORRENT DOWNLOAD DOWNLOAD ANONYMOUS

Posted on May 19, 2012 in Movies » Misc

Size: 805.3 MB , Seeds: 0 , Peers: 0 ( Updated February 3, 2016 - Refresh )

* Download via Magnet Link , * To download files you need a Bittorrent Client , * How to download torrents from Bit Torrent Scene?

advertising ( remove )

External Info

Trailer | Wikipedia | Other Info

Internal Files

John Cartet 2012 DVDRip Latino.avi
John Cartet 2012 DVDRip Latino.avi   804.85 MB

Hash Code

b9df16eefff1a5ca8e6e74336d5cfe24df7099b7

Description


Generalidades

Calificación: 7,0/10 34.863 votos »
Director: Andrew Stanton
Escritores:
Andrew Stanton (guión) &
Mark Andrews (guión) ...
Ver más »
Fecha de Estreno: 9 marzo 2012 (Colombia)
Género: Acción | Aventura | Fantasía | Ciencia-Ficción

Idioma: Español latino
Subtitulos: No

Video
ID : 0
Format : MPEG-4 Visual
Format profile : Simple@L3
Format settings, BVOP : No
Format settings, QPel : No
Format settings, GMC : No warppoints
Format settings, Matrix : Default (H.263)
Codec ID : XVID
Codec ID/Hint : XviD
Duration : 2h 12mn
Bit rate : 747 Kbps
Width : 608 pixels
Height : 256 pixels
Display aspect ratio : 2.35:1
Frame rate : 23.976 fps
Color space : YUV
Chroma subsampling : 4:2:0
Bit depth : 8 bits
Scan type : Progressive
Bits/(Pixel*Frame) : 0.200
Stream size : 705 MiB (88%)
Writing library : XviD 1.2.1 (UTC 2008-12-04)

Audio
ID : 1
Format : MPEG Audio
Format version : Version 1
Format profile : Layer 3
Mode : Joint stereo
Mode extension : MS Stereo
Codec ID : 55
Codec ID/Hint : MP3
Duration : 2h 12mn
Bit rate mode : Constant
Bit rate : 96.0 Kbps
Channel(s) : 2 channels
Sampling rate : 48.0 KHz
Stream size : 90.7 MiB (11%)
Alignment : Split accross interleaves
Interleave, duration : 42 ms (1.00 video frame)
Interleave, preload duration : 500 ms
Language : Latin / Aragonese

Torrent location

http://thepiratebay.se/torrent/7280108/John_Carter_DVDRIP_LATINO

Scrape History ( seeds + peers )

Trackers

Refresh Leechers : Updated February 3, 2016

1. http://tracker.thepiratebay.org/announce

2. udp://tracker.openbittorrent.com:80

3. udp://tracker.ccc.de:80

4. udp://tracker.publicbt.com:80

Comments

You must log in to add a comment.

Embed Code

Sharing Widget

Top Movies ( auto generated report )

FILENAME SIZE SEEDS PEERS ADDED UPD
[i] Genius.2016.HDRip.XviD.AC3-EVO 1.39 GB 2250 1125 1 day 23 hours
[i] Hard.Target.2.2016.BDRip.XviD.AC3-EVO[PRiME] 1.41 GB 2239 992 1 day 7 hours
[i] Girls.for.Sale.2016.720p.WEBRip.x264.AAC-ETRG 684.3 MB 2137 941 2 days 1 day
[i] Black.Road.2016.HDRip.XviD.AC3-EVO 1.36 GB 2010 1160 1 day 23 hours
[i] Nerve 2016 TSHQ VOSE 569.57 MB 1999 462 1 day 14 hours
[i] The.Darkness.2016.HDRip.XViD-ETRG 710.3 MB 1615 766 1 day 23 hours
[i] The.Emeryville.Experiments.2016.HDRip.XviD.AC3-EVO 1.33 GB 1601 1702 4 days 4 days
[i] Ghosthunters.2016.BRRip.XviD.AC3-EVO 1.39 GB 1074 1642 4 days 4 days
[i] The Mobfathers 2016 CHINESE 1080p BluRay x264 AC3-JYK 2.27 GB 1006 309 1 day 14 hours
[i] Neighbors.2.Sorority.Rising.2016.720p.BRRip.x264.AAC-ETRG 694.3 MB 920 373 2 days 1 day
advertising ( remove )