Bit Torrent Scene a public file sharing platform Home Upload Categories Blog About

Little Murder 2011 DVDRip XviD-OCW

DOWNLOAD TORRENT DOWNLOAD DOWNLOAD ANONYMOUS

Posted on December 7, 2011 in Movies » Misc , downloaded 36 times , verified torrent

Size: 1.02 GB , Seeds: 1 , Peers: 0 ( Updated November 19, 2014 - Refresh )

* Download via Magnet Link , * To download files you need a Bittorrent Client , * How to download torrents from Bit Torrent Scene?

advertising ( remove )

External Info

Trailer | Wikipedia | Other Info

Internal Files

Little murder
Torrent downloaded from Demonoid.me.txt   46 Byte
Little.Murder.2011.DVDRip.XviD.OCW.avi   1.02 GB

Hash Code

804eca21900a82b1f098aa87b862b42ee1b25270

Description


Little Murder 2011 DVDRip XviD OCW


http://imdb.com/title/tt1493815/

In post-Katrina New Orleans, a disgraced detective encounters the ghost of a murdered woman who wants to help him identify her killer..

General
Complete name : Little.Murder.2011.DVDRip.XviD.OCW.avi
Format : AVI
Format/Info : Audio Video Interleave
File size : 1.02 GiB
Duration : 1h 33mn
Overall bit rate : 1 564 Kbps

Video
ID : 0
Format : AVC
Format/Info : Advanced Video Codec
Format profile : High@L5.1
Format settings, CABAC : Yes
Format settings, ReFrames : 2 frames
Codec ID : H264
Duration : 1h 33mn
Bit rate : 1 362 Kbps
Width : 1 024 pixels
Height : 576 pixels
Display aspect ratio : 16:9
Frame rate : 25.000 fps
Color space : YUV
Chroma subsampling : 4:2:0
Bit depth : 8 bits
Scan type : Progressive
Bits/(Pixel*Frame) : 0.092
Stream size : 914 MiB (87%)

Audio
ID : 1
Format : MPEG Audio
Format version : Version 1
Format profile : Layer 3
Codec ID : 55
Codec ID/Hint : MP3
Duration : 1h 33mn
Bit rate mode : Constant
Bit rate : 192 Kbps
Channel(s) : 2 channels
Sampling rate : 44.1 KHz
Compression mode : Lossy
Stream size : 129 MiB (12%)
Alignment : Split accross interleaves
Interleave, duration : 40 ms (1.01 video frame)
Interleave, preload duration : 457 ms


Poster:


http://i.imgur.com/SwdFA.jpg


Screens:


http://i.imgur.com/15Q3H.png


http://i.imgur.com/zt7w0.png


http://i.imgur.com/7wYqv.png


ENJOY!

Torrent location

http://thepiratebay.org/torrent/6871162/Little_Murder_2011_DVDRip_XviD-OCW

Scrape History ( seeds + peers )

Trackers

Refresh Leechers : Updated November 19, 2014

1. http://tracker.thepiratebay.org/announce

2. udp://tracker.openbittorrent.com:80

3. udp://tracker.ccc.de:80

4. udp://tracker.publicbt.com:80

5. udp://tracker.istole.it:80

6. http://pow7.com/announce

7. http://tracker.ex.ua/announce

8. udp://tracker.1337x.org:80/announce

9. http://exodus.desync.com:6969/announce

10. http://inferno.demonoid.me:3412/announce

Comments

You must log in to add a comment.

Embed Code

Sharing Widget

Related torrents

FILENAME SIZE SEEDS PEERS ADDED UPD
[i] Little.Murder.2011.DVDRip 339.15 MB 0 0 4 years 6 months
[i] Little.Murder.2011.DVDRip.XviD-OCW 1.03 GB 0 1 4 years 6 months
[i] Little Murder (2011) [DvdRip 400mb] BHATTI 401.15 MB 0 0 4 years 6 months
[i] Little.Murder.2011.DVDRip.XviD.OCW 1.02 GB 0 0 4 years 6 months
[i] Little.Murder.2011.DVDRip.XviD.OCW 1.02 GB 0 0 4 years 6 months
[i] Little.Murder.2011.DVDRip.XviD-RedBlade 700.82 MB 0 0 4 years 6 months
[i] Little Murder 2011 DVDRip XviD-RedBlade
posted by Boobsman in Movies - Thriller
700.61 MB 0 1 4 years 6 months
[i] Little Murder 2011 DVDRip XviD-BHRG 707.57 MB 0 1 4 years 6 months

Top Movies ( auto generated report )

FILENAME SIZE SEEDS PEERS ADDED UPD
[i] Term Life 2016 FRENCH BDRip XviD-EXTREME 694.82 MB 8010 2337 2 days 1 day
[i] Ghostbusters.2016.TS.XviD-BiGDADDYVAiN
Movies - Comedy , Quality: Audio 6/10 - Video 5/10
1.12 GB 5203 3180 1 day 23 hours
[i] Madaari (2016) Hindi 1CD DesiScr x264 AAC - Downloadhub 718.57 MB 4110 6880 20 hours 18 hours
[i] The Angry Birds Movie 2016 720p x264 WebRip AC3-4FuN[EtHD]
Movies - Animation , Quality: Audio 7/10 - Video 6/10
3.05 GB 3939 1998 4 days 3 days
[i] Star Trek Beyond 2016 CAM UnKnOwN
Movies - Action , Quality: Audio 8/10 - Video 8/10
871.3 MB 3380 3120 15 hours 13 hours
[i] Assassin.X.2016.DVDRip.XviD.AC3-EVO 1.41 GB 3229 3239 2 days 1 day
[i] Bridgend.2016.HDRip.XviD.AC3-EVO
Movies - Drama , Quality: Audio 8/10 - Video 8/10
1.41 GB 2849 2576 4 days 3 days
[i] Sniper.Ghost.Shooter.2016.DVDRip.XviD.AC3-EVO 1.41 GB 2811 3970 2 days 2 days
[i] Batman.The.Killing.Joke.2016.BRRip.XviD.AC3-EVO
Movies - Animation , Quality: Audio 9/10 - Video 9/10
1.13 GB 2810 4691 1 day 1 day
[i] Meet.the.Blacks.2016.BRRip.XViD-ETRG
Movies - Comedy , Quality: Audio 9/10 - Video 9/10
709.3 MB 2708 2701 1 day 1 day
advertising ( remove )