Bit Torrent Scene a public file sharing platform Home Upload Categories Blog About

advertising ( remove )

Marry Him If You Dare E06 HDTV XVID LIMO

DOWNLOAD TORRENT DOWNLOAD DOWNLOAD ANONYMOUS

Posted on October 30, 2013 in Series » Misc , verified torrent

Size: 674.82 MB , Seeds: 0 , Peers: 0 ( Updated March 15, 2016 - Refresh )

* Download via Magnet Link , * To download files you need a Bittorrent Client , * How to download torrents from Bit Torrent Scene?

advertising ( remove )

External Info

Trailer | Wikipedia | Other Info

Internal Files

Marry.Him.If.You.Dare.E06.131029.HDTV.XviD-LIMO
Marry.Him.If.You.Dare.E06.131029.HDTV.XviD-LIMO.avi   674.49 MB
Marry.Him.If.You.Dare.E06.131029.HDTV.XviD-LIMO.srt   62.8 KB
ViSiT@@ AreaFiles.org.txt   404 Byte

Hash Code

f7a7aed6a5f51426eee8d748b59479b83b6b3c5c

Description

SCREENSHOT



Details



Title: 미래의 선택 / Mi Rae-ui Suntaek

Also known as: Mi Rae's Choice / Future's Choice / The Choice of the Future / The Future Choice

Genre: Romance, comedy, time travel, fantasy

Episodes: TBA

Broadcast network: KBS2

Broadcast period: 2013-Oct-14 to 2013-Dec-??

Air time: Monday & Tuesday 22:00

Subtitles English



Synopsis

32 years old for woman is an age which may be little too late to start something new or little too early to give up something. The 'future-self' comes to ‘me’ today and gives advices about life and marriage. The future-self is trying to bring better life by helping her to meet a perfect spouse.--KBS World

This drama will tell the story about a 57 years old woman named Na Mi Rae (Choi Myung Gil) from 2038, a television broadcast writer, travels back in time to meet her 32-year-old self (Yoon Eun Hye) from 2013 with the goal of preventing her marriage to Kim Shin (Lee Dong Gun) and thus send her past self down a different path in life.



Main Cast

Yoon Eun Hye as Na Mi Rae (32)

Choi Myung Gil as Na Mi Rae's future self (57)

Lee Dong Gun as Kim Shin (35)

Jung Yong Hwa as Park Se Joo (28)

Han Chae Ah as Seo Yoo Kyung (28)

People in Broadcasting Station

Oh Jung Se as Na Joo Hyun (35)

Lee Mi Do as Bae Hyun Ah (30)

Ahn Se Ha as Lee Jae Soo (32)

Go Doo Shim as Lee Mi Ran (65)



SCREENSHOT





Video

ID : 0

Format : MPEG-4 Visual

Format profile : Advanced Simple@L5

Format settings, BVOP : No

Format settings, QPel : No

Format settings, GMC : No warppoints

Format settings, Matrix : Default (MPEG)

Codec ID : XVID

Codec ID/Hint : XviD

Duration : 1h 6mn

Bit rate : 1 391 Kbps

Width : 624 pixels

Height : 352 pixels

Display aspect ratio : 16:9

Frame rate : 29.970 fps

Color space : YUV

Chroma subsampling : 4:2:0

Bit depth : 8 bits

Scan type : Progressive

Compression mode : Lossy

Bits/(Pixel*Frame) : 0.211

Stream size : 660 MiB (87%)

Writing library : XviD 1.2.1 (UTC 2008-12-04)



Audio

ID : 1

Format : MPEG Audio

Format version : Version 1

Format profile : Layer 3

Mode : Joint stereo

Mode extension : MS Stereo

Codec ID : 55

Codec ID/Hint : MP3

Duration : 1h 6mn

Bit rate mode : Constant

Bit rate : 128 Kbps

Channel(s) : 2 channels

Sampling rate : 48.0 KHz

Compression mode : Lossy

Stream size : 60.8 MiB (8%)

Alignment : Aligned on interleaves

Writing library : LAME3.98.2

Language : un

Torrent location

http://extratorrent.cc/torrent/3276580/Marry+Him+If+You+Dare+E06+HDTV+XVID+LIMO.html

Scrape History ( seeds + peers )

Trackers

Refresh Leechers : Updated March 15, 2016

1. http://94.228.192.98/announce

2. http://bigfoot1942.sektori.org:6969/announce

3. http://announce.torrentsmd.com:8080/announce

4. http://tracker.nwps.ws:6969/announce

5. udp://11.rarbg.me:80/announce

6. udp://open.demonii.com:1337/announce

7. udp://tracker.istole.it:80

8. udp://tracker.istole.it:80/announce

9. udp://9.rarbg.com:2710/announce

Comments

You must log in to add a comment.

Embed Code

Sharing Widget

Related torrents

FILENAME SIZE SEEDS PEERS ADDED UPD
[i] Someone Marry Barry (2014) 720p BrRip x264 - YIFY 698.5 MB 16 6 1 year 3 weeks
[i] [MagmaFilm]Marry Queen - Natural Wonders Of The World 66 [.mp4]
posted by nsanyi23 in Porn - Movies
343.26 MB 14 2 4 months 1 month
[i] [Woodman CastingX]Marry Queen - Casting and Hardcore in Budapest
posted by nsanyi23 in Porn - Movies
660.49 MB 13 1 7 months 1 month
[i] Someone Marry Barry (2014) 1080p BrRip x264 - YIFY 1.23 GB 10 4 1 year 3 weeks
[i] Creamy Holes 2 - Marry Queen.avi 246.07 MB 9 0 2 years 6 months
[i] MikesApartment.13.05.29.Marry.Dream.Dream.Stay.XXX.1080p.MP4-KTR 2.92 GB 8 1 3 years 3 months
[i] Marry Queen - Marry Queen Gets Her Blizzard HD 720p 979.32 MB 8 1 2 years 6 months
[i] Marry Me 2014 S01E03 HDTV x264-LOL [eztv] 168.63 MB 8 0 1 year 5 months
[i] MofosWorldWide - Marry Queen (The Queen is Back!) 354.32 MB 7 3 3 years 2 months
[i] My Dirty Hobby - Marry Fucks - Extreme - He paints my face with cum 106.31 MB 7 2 2 weeks 1 day

Top Series ( auto generated report )

FILENAME SIZE SEEDS PEERS ADDED UPD
[i] The.Big.Bang.Theory.S10E02.HDTV.x264-LOL[ettv] 112.5 MB 9483 1764 2 days 1 day
[i] MacGyver.2016.S01E01.HDTV.x264-LOL[ettv] 360.5 MB 8913 1702 5 days 4 days
[i] Gotham.S03E02.HDTV.x264-LOL[ettv] 202.5 MB 8437 1611 2 days 1 day
[i] Lethal.Weapon.S01E02.HDTV.x264-LOL[ettv] 266.5 MB 3554 3024 10 hours 7 hours
[i] UFC Fight Night 95 Cyborg vs Lansberg HDTV x264-Ebi [TJET] 1.93 GB 3229 1163 4 days 3 days
[i] Fear.the.Walking.Dead.S02E13.REPACK.HDTV.x264-KILLERS[ettv] 328.5 MB 2908 1836 3 days 3 days
[i] Van.Helsing.S01E02.HDTV.x264-LOL[ettv] 222.5 MB 2850 175 5 days 20 hours
[i] Z.Nation.S03E02.HDTV.x264-KILLERS[ettv] 408.5 MB 2770 602 5 days 4 days
[i] The.Strain.S03E05.HDTV.x264-KILLERS[ettv] 286.5 MB 2685 1932 3 days 3 days
[i] Designated.Survivor.S01E02.HDTV.x264-KILLERS[ettv] 312.5 MB 2614 2195 9 hours 7 hours
advertising ( remove )