Bit Torrent Scene a public file sharing platform Home Upload Categories Blog About

advertising ( remove )

Nanny Mcphee And The Big Bang 2010 Re Work TS XviD - IMAGINE

DOWNLOAD TORRENT DOWNLOAD DOWNLOAD ANONYMOUS

Posted on May 28, 2010 in Movies » Misc

Size: 822.07 MB , Seeds: 0 , Peers: 0 ( Updated November 20, 2015 - Refresh )

* Download via Magnet Link , * To download files you need a Bittorrent Client , * How to download torrents from Bit Torrent Scene?

advertising ( remove )

External Info

Trailer | Wikipedia | Other Info

Internal Files

Nanny Mcphee And The Big Bang 2010 Re Work TS XviD - IMAGINE
Movie Info.NFO   5.16 KB
Nanny Mcphee And The Big Bang 2010 Re Work TS XviD - IMAGINE.avi   811.21 MB
Read This Guide Now.txt   502 Byte
Subtitles.rar   132.12 KB
Torrent Tracked By www.Demonoid.com.txt.txt   129 Byte
sample.avi   10.57 MB
torrent Tracked By www.Extratorrent_com.txt   49 Byte
www.Torrentday.com.txt   502 Byte

Hash Code

3dce94d0ef1f1f54c087269eef62fa8b80047d01

Description





********************************************************************************************************************
Nanny Mcphee And The Big Bang 2010 Re Work TS XviD - IMAGINE
********************************************************************************************************************

Ripper ...........: IMAGiNE IMDB Rating.......:6.8/10
Video Codec.......: XVID Release Date......:29/04/10
Audio Codec.......:MP3 Theatre Date......:20/08/10
Audio Bitrate.....:128 Runtime.......:1h 37mn
Subtitles.........:NIL Language..........:ENGLISH
Resolution...... 720 x 288 IMDb URL..........:http://www.imdb.com/title/tt1415283/


DETAILS:

Video
ID : 0
Format : MPEG-4 Visual
Format profile : Advanced Simple@L5
Format settings, BVOP : Yes
Format settings, QPel : No
Format settings, GMC : No warppoints
Format settings, Matrix : Default (MPEG)
Muxing mode : Packed bitstream
Codec ID : XVID
Codec ID/Hint : XviD
Duration : 1h 37mn
Bit rate : 1 885 Kbps
Width : 720 pixels
Height : 288 pixels
Display aspect ratio : 2.500
Frame rate : 25.000 fps
Resolution : 24 bits
Colorimetry : 4:2:0
Scan type : Progressive
Bits/(Pixel*Frame) : 0.364
Stream size : 1.28 GiB (93%)
Writing library : XviD 1.2.1 (UTC 2008-12-04)

Audio
ID : 1
Format : MPEG Audio
Format version : Version 1
Format profile : Layer 3
Codec ID : 55
Codec ID/Hint : MP3
Duration : 1h 37mn
Bit rate mode : Constant
Bit rate : 128 Kbps
Channel(s) : 2 channels
Sampling rate : 44.1 KHz
Resolution : 16 bits
Stream size : 89.3 MiB (6%)
Alignment : Split accross interleaves
Interleave, duration : 40 ms (1.00 video frame)
Interleave, preload duration : 500 ms



NOTES:

Firstly onto sources.....we used the new russian video muxed with prisms audio (thanks both)
Now the video is alot better on this version than the other one....no motion issues ;-)
The video however still needed some TLC,as the rgb colours were well off along with other problems,but we fixed
them the best we could.
The audio isn't too bad for cam and at the mo is the only audio available so .....
The hardest part was the syncing.....right pain in the ass :lol: but after some lining up and comparing to prism source it
seems prisms release was missing footage so that meant we had video with no audio :( roughly 2mins 30secs so we've
opted to cut the missing footage as it would be silly to have 2mins + of video with no audio.
Anyway done the best we could with the sources available...

Enjoy :)

Scrape History ( seeds + peers )

Trackers

Refresh Leechers : Updated November 20, 2015

1. http://tracker.thepiratebay.org/announce

2. udp://tracker.thepiratebay.org:80/announce

3. http://tracker.publicbt.com/announce

4. udp://tracker.publicbt.com:80/announce

5. udp://tracker.openbittorrent.com:80/announce

6. http://tracker.openbittorrent.com/announce

Comments

You must log in to add a comment.

Embed Code

Sharing Widget

Related torrents

FILENAME SIZE SEEDS PEERS ADDED UPD
[i] Nanny McPhee and the Big Bang (2010) Spanish BRSCR 2.13 GB 14 0 6 years 9 months
[i] Nanny McPhee Returns (2009) BluRay 720p 750MB Ganool 749.82 MB 12 3 2 years 8 months
[i] Nanny McPhee 2005 HC SWESUB 720p BRRiP x264 mp4 978.65 MB 6 1 3 months 1 week
[i] Nanny McPhee and The Big Bang (2010)DVDR NL Subs NLT-Release (Divx) 1.36 GB 2 0 3 years 6 months
[i] [SoM]Nanny McPhee - Tata Matilda[DvdRip-Xvid-Ita-Mp3] 700.01 MB 1 0 7 years 5 days
[i] Nanny McPhee Returns [2010]DVDRip[Xvid]AC3 5.1[Eng]BlueLady 1.47 GB 1 1 5 years 8 months
[i] Nanny McPhee 2005 1080p BluRay DD5 1 x264-EbP 11.92 GB 1 2 2 years 1 month
[i] Nanny.McPhee.And.The.Big.Bang.2010.DVDRip.XviD-DUBBY 711.57 MB 0 0 6 years 9 months
[i] Nanny.McPhee.And.The.Big.Bang.DVDRip.XviD-ALLiANCE 739.3 MB 0 0 6 years 9 months
[i] Nanny.McPhee.And.The.Big.Bang.DVDRip.XviD-ALLiANCE 700.07 MB 0 0 6 years 9 months

Top Movies ( auto generated report )

FILENAME SIZE SEEDS PEERS ADDED UPD
[i] Jason.Bourne.720p.HDTC.X264-NUKU
Movies - Action , Quality: Audio 8/10 - Video 8/10
2.49 GB 8305 4566 2 days 1 day
[i] The Conjuring 2 (2016) 720p BluRay - 1.2GB - ShAaNiG 1.2 GB 7125 5490 3 days 2 days
[i] Blood.Father.2016.720p.WEBRip.x264.AAC-ETRG 662.3 MB 4159 2580 3 days 2 days
[i] War Dogs 2016 HD-TS x264-CPG 2.1 GB 3948 3105 3 days 2 days
[i] The.Conjuring.2.2016.720p.BRRip.x264.AAC-ETRG 1004.3 MB 3885 3190 3 days 2 days
[i] Jason Bourne (2016) 720p HDTC 850MB - MkvCage 904.3 MB 3847 1228 3 days 1 day
[i] The.Conjuring.2.2016.BRRip.XViD.AC3-ETRG 1.41 GB 2498 2579 3 days 2 days
[i] Jason Bourne (2016) 720p HDTS - 1GB - ShAaNiG 1.04 GB 1901 860 3 days 2 days
[i] The.Ones.Below.2016.BRRip.XviD.AC3-EVO 1.4 GB 1719 1450 2 days 1 day
[i] The.Conjuring.2.2016.720p.BluRay.x264-SPARKS[EtHD] 5.55 GB 1596 3176 4 days 3 days
advertising ( remove )