Bit Torrent Scene a public file sharing platform Home Upload Categories Blog About

advertising ( remove )

{NDS Movie} Richie Rich.DVDrip-Cradle

DOWNLOAD TORRENT DOWNLOAD DOWNLOAD ANONYMOUS

Posted on April 1, 2011 in Games » Nintendo DS , verified torrent

Size: 281.65 MB , Seeds: 0 , Peers: 0 ( Updated December 18, 2015 - Refresh )

* Download via Magnet Link , * To download files you need a Bittorrent Client , * How to download torrents from Bit Torrent Scene?

advertising ( remove )

External Info

Trailer | Wikipedia | Other Info

Internal Files

{NDS Movie} Richie Rich.DVDrip-Cradle
Richie Rich.dvdrip.dpg   281.09 MB
cradle.nfo   4.15 KB
1337x.org   48 Byte

Hash Code

2b597b00fbe55469ffc723230498215b77451684

Description








-------------------------------

Complete name : {NDS Movie} Richie Rich.DVDrip-Cradle

Format : DPG

Format/Info : Nintendo DS

File size : 281 MiB

Duration : 1h 34mn

Overall bit rate : 416 Kbps



Video

Format : MPEG Video

Format version : Version 1

Format settings, BVOP : No

Format settings, Matrix : Default

Duration : 1s 667ms

Bit rate mode : Variable

Bit rate : 256 Kbps

Width : 256 pixels

Height : 192 pixels

Display aspect ratio : 4:3

Frame rate : 15.000 fps

Original frame rate : 23.976 fps

Color space : YUV

Bit depth : 8 bits

Scan type : Progressive

Compression mode : Lossy

Bits/(Pixel*Frame) : 0.347

Stream size : 173 MiB (62%)



Audio

Format : MPEG Audio

Format version : Version 1

Format profile : Layer 2

Duration : 1h 34mn

Bit rate mode : Constant

Bit rate : 160 Kbps

Channel(s) : 2 channels

Sampling rate : 32.0 KHz

Compression mode : Lossy

Stream size : 108 MiB (38%)

--------------------------------------------------------------------------------











NOTES:

Release Date··[ 26 May 1995 (UK)

IMDB Rating···[ 4.7/10

Genre·········[ Comedy | Family

LINK .........[ http://www.imdb.com/title/tt0110989/



Director:Donald Petrie

Writers:Neil Tolkin (story), Tom S. Parker (screenplay),

Stars:Macaulay Culkin, Edward Herrmann and John Larroquette

Language: English



The richest kid in the world, Richie Rich, has everything he wants, except companionship.

While representing his father at a factory opening



GREETS:

IMAGiNE,Noir,FLAWL3SS,ViSiON,FUSiON,Rx,SecretMyth,BirdFlu,ELEKTRI4KA,SERENiTY,and Autotron

And to all the other p2p grps past and present





THE MORE SEEDS MEANS MORE DS MOVIES RELEASES ! ! ! ! !



all my files are cleaned with




Scrape History ( seeds + peers )

Trackers

Refresh Leechers : Updated December 18, 2015

1. http://nemesis.1337x.org/announce

Comments

You must log in to add a comment.

Embed Code

Sharing Widget

Top Games ( auto generated report )

FILENAME SIZE SEEDS PEERS ADDED UPD
[i] No Mans Sky v2.3.0.5 (22 August 2016) 2.52 GB 264 161 3 days 2 days
[i] Worms W.M.D-CODEX 1.92 GB 146 80 2 days 1 day
[i] INSIDE (Properly Cracked, MULTI14) [FitGirl Repack] 940.3 MB 145 103 2 days 1 day
[i] Inside MULTi11 RePack By R.G. Freedom Uploaded-NASWARI+ZOHAIB 996.3 MB 114 30 2 days 1 day
[i] Sneak Thief v0.1 424.65 MB 109 18 2 days 1 day
[i] Inside-CONSPIR4CY 2.31 GB 76 30 2 days 1 day
[i] Galactic Civilizations 3 (v1.81 + 10 DLC) [FitGirl Repack, Selective Download - 5.8 GB] 6.96 GB 71 134 4 days 3 days
[i] Robot Arena III v1.0.0.2 407.15 MB 30 9 2 days 1 day
[i] Reigns v1.0u3 73.79 MB 29 2 2 days 1 day
[i] Reigns Collectors Edition v1.22 240.82 MB 24 4 20 hours 18 hours
advertising ( remove )