Bit Torrent Scene a public file sharing platform Home Upload Categories Blog About

advertising ( remove )

{NDS Movie} Richie Rich.DVDrip-Cradle

DOWNLOAD TORRENT DOWNLOAD DOWNLOAD ANONYMOUS

Posted on April 1, 2011 in Games » Nintendo DS , verified torrent

Size: 281.65 MB , Seeds: 0 , Peers: 0 ( Updated December 18, 2015 - Refresh )

* Download via Magnet Link , * To download files you need a Bittorrent Client , * How to download torrents from Bit Torrent Scene?

advertising ( remove )

External Info

Trailer | Wikipedia | Other Info

Internal Files

{NDS Movie} Richie Rich.DVDrip-Cradle
Richie Rich.dvdrip.dpg   281.09 MB
cradle.nfo   4.15 KB
1337x.org   48 Byte

Hash Code

2b597b00fbe55469ffc723230498215b77451684

Description








-------------------------------

Complete name : {NDS Movie} Richie Rich.DVDrip-Cradle

Format : DPG

Format/Info : Nintendo DS

File size : 281 MiB

Duration : 1h 34mn

Overall bit rate : 416 Kbps



Video

Format : MPEG Video

Format version : Version 1

Format settings, BVOP : No

Format settings, Matrix : Default

Duration : 1s 667ms

Bit rate mode : Variable

Bit rate : 256 Kbps

Width : 256 pixels

Height : 192 pixels

Display aspect ratio : 4:3

Frame rate : 15.000 fps

Original frame rate : 23.976 fps

Color space : YUV

Bit depth : 8 bits

Scan type : Progressive

Compression mode : Lossy

Bits/(Pixel*Frame) : 0.347

Stream size : 173 MiB (62%)



Audio

Format : MPEG Audio

Format version : Version 1

Format profile : Layer 2

Duration : 1h 34mn

Bit rate mode : Constant

Bit rate : 160 Kbps

Channel(s) : 2 channels

Sampling rate : 32.0 KHz

Compression mode : Lossy

Stream size : 108 MiB (38%)

--------------------------------------------------------------------------------











NOTES:

Release Date··[ 26 May 1995 (UK)

IMDB Rating···[ 4.7/10

Genre·········[ Comedy | Family

LINK .........[ http://www.imdb.com/title/tt0110989/



Director:Donald Petrie

Writers:Neil Tolkin (story), Tom S. Parker (screenplay),

Stars:Macaulay Culkin, Edward Herrmann and John Larroquette

Language: English



The richest kid in the world, Richie Rich, has everything he wants, except companionship.

While representing his father at a factory opening



GREETS:

IMAGiNE,Noir,FLAWL3SS,ViSiON,FUSiON,Rx,SecretMyth,BirdFlu,ELEKTRI4KA,SERENiTY,and Autotron

And to all the other p2p grps past and present





THE MORE SEEDS MEANS MORE DS MOVIES RELEASES ! ! ! ! !



all my files are cleaned with




Scrape History ( seeds + peers )

Trackers

Refresh Leechers : Updated December 18, 2015

1. http://nemesis.1337x.org/announce

Comments

You must log in to add a comment.

Embed Code

Sharing Widget

Top Games ( auto generated report )

FILENAME SIZE SEEDS PEERS ADDED UPD
[i] The Saboteur (GOG DRM-Free, MULTI6) [FitGirl Repack, Selective Download - from 2.3 GB] 3.48 GB 109 211 2 days 1 day
[i] ZOMBI (v1.1, MULTI9) [FitGirl Repack] 3.84 GB 100 106 2 days 1 day
[i] Earthlock: Festival of Magic [FitGirl Repack] 1.32 GB 82 40 1 day 13 hours
[i] Car Mechanic Simulator 2015 v1.0.8.3 Incl ALL DLC 1.19 GB 80 64 1 day 13 hours
[i] Rogue Wizards v1.0.278 98.91 MB 77 8 1 day 13 hours
[i] SPORE Collection (GOG DRM-Free, MULTI19) [FitGirl Repack] 3.97 GB 71 42 4 days 3 days
[i] Pokemon Go v0 39 1 (Mods) APK [SadeemPC] 386.58 MB 60 45 3 days 2 days
[i] FIFA 17 XBOX360-COMPLEX 7.83 GB 60 130 1 day 2 hours
[i] Ashes of the Singularity v1.32-GOG 4.94 GB 57 85 3 days 2 days
[i] Subnautica v38295 4.46 GB 54 52 4 days 3 days
advertising ( remove )