Bit Torrent Scene a public file sharing platform Home Upload Categories Blog About

advertising ( remove )

Rise of The Zombies [2013] - DVDRip - 1CD - Xvid - MP3 - E-Sub - [Team Telly] - eXclusive - seTul34

DOWNLOAD TORRENT DOWNLOAD DOWNLOAD ANONYMOUS

Posted on August 15, 2013 in Movies » Misc , verified torrent

Size: 719.3 MB , Seeds: 0 , Peers: 0 ( Updated August 28, 2016 - Refresh )

* Download via Magnet Link , * To download files you need a Bittorrent Client , * How to download torrents from Bit Torrent Scene?

advertising ( remove )

External Info

Trailer | Wikipedia | Other Info

Internal Files

Rise of The Zombies [2013] - DVDRip - 1CD - Xvid - MP3 - E-Sub - [Team Telly] - eXclusive - seTul34
vlcsnap-2013-08-14-18h22m15s123.png   321.11 KB
vlcsnap-2013-08-14-18h26m17s235.png   318.51 KB
vlcsnap-2013-08-14-18h25m55s11.png   291.8 KB
vlcsnap-2013-08-14-18h22m26s230.png   279.53 KB
vlcsnap-2013-08-14-18h22m44s158.png   261.08 KB
vlcsnap-2013-08-14-18h26m01s74.png   259.17 KB
vlcsnap-2013-08-14-18h23m23s40.png   214.18 KB
vlcsnap-2013-08-14-18h21m49s112.png   160.11 KB
vlcsnap-2013-08-14-18h22m03s1.png   63.54 KB
[www.TellyTorrents.com] Rise of The Zombies [2013] - DVDRip - 1CD - Xvid - MP3 - E-Sub - [Team Telly] - eXclusive - seTul34.avi   708.35 MB
[www.TellyTorrents.com] SAMPLE - Rise of The Zombies [2013] - DVDRip - 1CD - Xvid - MP3 - E-Sub - [Team Telly] - eXclusive - seTul34.avi   7.91 MB
seTul34 Banner.png   168.21 KB
Torrent Posted On Extratorrent.com.txt   55 Byte
Torrent Downloaded From TellyTorrents.com.txt   53 Byte

Hash Code

950287c400ac5572b5ed5088bf953dd97719046f

Description



Ripping Credit : deep1007



SCREENSHOT





Rise of The Zombies *2013*

"DVDRip - 1Cd - Xvid - MP3 - E-Sub"

..:: Team Telly ::..

..:: eXclusive ~ seTul34 ::..




SCREENSHOT





~:Media Info:~



Code:
General
Complete name : Rise of The Zombies [2013] - seTul34.avi
Format : AVI
Format/Info : Audio Video Interleave
File size : 708 MiB
Duration : 1h 26mn
Overall bit rate : 1 143 Kbps

Video
ID : 0
Format : MPEG-4 Visual
Format profile : Simple@L3
Codec ID : XVID
Duration : 1h 26mn
Bit rate : 1 029 Kbps
Width : 640 pixels
Height : 272 pixels
Display aspect ratio : 2.35:1
Frame rate : 29.970 fps
Original frame rate : 29.000 fps
Stream size : 638 MiB (90%)

Audio
ID : 1
Format : MPEG Audio
Codec ID : 55
Codec ID/Hint : MP3
Duration : 1h 26mn
Bit rate mode : Constant
Bit rate : 96.0 Kbps
Channel(s) : 2 channels
Sampling rate : 44.1 KHz
`1Stream size : 59.5 MiB (8%)





Quality Releaser ~ seTul34 wrote:
Problem-* Screenshots Wont Be Clear As It Is When It's Downloaded!

Reason-* Screenshots Have Been Taken From Windows Server!

Solution-* Please Check The Sample Link Provided Below!





~:ScreenShot:~



SCREENSHOT

SCREENSHOT

SCREENSHOT

SCREENSHOT

SCREENSHOT

SCREENSHOT

SCREENSHOT

SCREENSHOT

SCREENSHOT







~: SAMPLE :~





Don't Forget To Say "Thanks"! And "Comment"! If You Like My Post!

If You Don't Reply, This Post Will "Die"!

Check Sample Before "Commenting"!





~: Super Seeding :~





Click Here To Add Review







SCREENSHOT



Torrent location

http://extratorrent.com/torrent/3178988/Rise+of+The+Zombies+%5B2013%5D+-+DVDRip+-+1CD+-++Xvid+-+MP3+-+E-Sub+-+%5BTeam+Telly%5D+-+eXclusive+-+seTul34.html

Scrape History ( seeds + peers )

Trackers

Refresh Leechers : Updated August 28, 2016

1. http://www.tellytorrents.com:2710/00000029fe7382d89d15c09689b6983c/announce

2. udp://www.h33t.com:3310/announce

3. http://121.14.98.151:9090/announce

4. http://newhorizons.twentyforty.me:2710/announce

5. udp://tracker.istole.it:80/announce

6. udp://ipv4.tracker.harry.lu:80/announce

7. http://94.228.192.98/announce

8. udp://9.rarbg.com:2710/announce

9. udp://11.rarbg.me:80/announce

10. udp://10.rarbg.com/announce

11. udp://tracker.publicbt.com:80/announce

12. udp://tracker.openbittorrent.com:80/announce

13. udp://fr33dom.h33t.com:3310/announce

14. udp://tracker.publichd.eu/announce

15. udp://fr33domtracker.h33t.com:3310/announce

Comments

You must log in to add a comment.

Embed Code

Sharing Widget

Related torrents

FILENAME SIZE SEEDS PEERS ADDED UPD
[i] Rise Of The Zombies 2012 FRENCH DVDRip XviD-ARTEFAC 700.5 MB 20 2 2 years 8 months
[i] Black Ops 2 Revolution Map Pack-Die Rise Zombies 1.89 GB 1 0 3 years 6 months
[i] Rise Of The Zombies 2012 1080p BluRay x264-BRMP 7.95 GB 1 1 2 years 6 months
[i] Rise Of The Zombies 2012 BRRip XviD MP3-RARBG 1.13 GB 1 1 2 months 3 weeks
[i] Rise.of.the.Zombies.HDTV.XviD-AFG 759.57 MB 0 3 3 years 6 months
[i] Rise of the Zombies [SYFY Original Movie] [2012/TVRIP/XViD] 676.07 MB 0 3 3 years 6 months
[i] Rise.of.the.Zombies.480p.HDTV.x264-mSD 523.07 MB 0 0 3 years 6 months
[i] Rise of the Zombies SYFY Original Movie 2012/TVRIP/XViD 676.07 MB 0 0 3 years 6 months
[i] Rise.of.the.Zombies.2012.HDRip.XVID.AC3.HQ.Hive-CM8 1.39 GB 0 3 3 years 6 months
[i] Rise.of.the.Zombies.2012.HDRip.XVID.AC3.HQ.Hive-CM8 1.39 GB 0 0 3 years 6 months

Top Movies ( auto generated report )

FILENAME SIZE SEEDS PEERS ADDED UPD
[i] Now.You.See.Me.2.2016.1080p.BluRay.x264.AC3-JYK 2.93 GB 5623 2377 3 days 12 hours
[i] Jason.Bourne.720p.HDTC.X264-NUKU
Movies - Action , Quality: Audio 8/10 - Video 8/10
2.49 GB 8305 4566 1 day 12 hours
[i] Blood.Father.2016.HDRip.XViD-ETRG 711.3 MB 7851 3968 3 days 1 day
[i] The Conjuring 2 (2016) 720p BluRay - 1.2GB - ShAaNiG 1.2 GB 7125 5490 2 days 1 day
[i] Jason Bourne (2016) 720p HDTC 850MB - MkvCage 904.3 MB 3847 1228 2 days 14 hours
[i] Blood.Father.2016.720p.WEBRip.x264.AAC-ETRG 662.3 MB 4159 2580 2 days 1 day
[i] War Dogs 2016 HD-TS x264-CPG 2.1 GB 3948 3105 2 days 1 day
[i] Our.Kind.of.Traitor.2016.HDRip.XviD.AC3-EVO 1.41 GB 4183 3294 1 day 12 hours
[i] The.Conjuring.2.2016.720p.BRRip.x264.AAC-ETRG 1004.3 MB 3885 3190 2 days 1 day
[i] The.Conjuring.2.2016.BRRip.XViD.AC3-ETRG 1.41 GB 2498 2579 2 days 1 day
advertising ( remove )