Bit Torrent Scene a public file sharing platform Home Upload Categories Blog About

advertising ( remove )

Sunny (1984)(Eng Subs) DVDrip (gnv64)

DOWNLOAD TORRENT DOWNLOAD DOWNLOAD ANONYMOUS

Posted on October 23, 2010 in Movies » Misc , verified torrent

Size: 1.55 GB , Seeds: 0 , Peers: 0 ( Updated December 1, 2015 - Refresh )

* Download via Magnet Link , * To download files you need a Bittorrent Client , * How to download torrents from Bit Torrent Scene?

advertising ( remove )

External Info

Trailer | Wikipedia | Other Info

Internal Files

Sunny (1984)
Sunny (1984).nfo   3.02 KB
Sunny DVDrip (1984) (gnv64).avi   1.54 GB
Sunny.jpeg   991.21 KB
Torrent downloaded from AhaShare.com.txt   59 Byte
Torrent downloaded from Demonoid.com.txt   47 Byte

Hash Code

eff60f294863f50dc84b856131a66e30a141ae8e

Description

Sunny (1984)(Eng Subs) DVDrip (gnv64)





Sunny (1984)

Director: Raj Khosla

Music : R.D.Burman

Cast:

Master Bhagwan     ...     Havaldar

Sunny Deol     ...     Sunny Inderjeet

Dharmendra     ...     Inderjeet

Manik Irani     ...     Amrita's molestor

Waheeda Rehman     ...     Mrs. Gayetri Inderjeet

Amrita Singh     ...     Amrita

Sharmila Tagore     ...     Sitara



Plot : Wealthy businessman Inderjeet marries a lovely woman named Gayatri, but is unhappy with this marriage, as she is unable to bear him any children. He starts frequenting brothels, where he meets with an attractive prostitute by the name of Sitara. Both get intimate, and Sitara becomes pregnant. When Gayetri finds out, she is enraged and will do anything in her power to prevent Sitara continuing to dominate Inderjeet's love. Before she could take any steps, Inderjeet dies in an plane accident, leaving Sitara alone and pregnant. Gayatri conspires against Sitara, invites her over, makes sure she gives birth, then tells her that the child was still-born. A devastated Sitara leaves to continue with her life, leaving Gayatri to bring up her son, Sunny, as her own. Years later, Sunny has grown up, has met with an attractive young woman named Amrita, who he would like to marry. When Gayatri finds out, she is initially happy, but relents when she finds out that Amrita is a dancer and singer on TV, and decides to oppose this marriage at all costs. But when Sunny adamantly refuses to marry anyone else, she permits Amrita's parents to meet with. It is this meeting that will change everything in Gayetri and Sunny's lives forever.



http://www.imdb.com/title/tt0232734/



Format : AVI

File size : 1.54 GiB

Duration : 2h 44mn

Overall bit rate : 1 342 Kbps




Quote:
Video :

Format : MPEG-4 Visual

Codec ID : XVID

Duration : 2h 44mn

Bit rate : 1 199 Kbps

Width : 640 pixels

Height : 360 pixels

Display aspect ratio : 16:9

Frame rate : 29.970 fps

Resolution : 8 bits

Scan type : Progressive

Bits/(Pixel*Frame) : 0.174

Stream size : 1.38 GiB (89%)



Audio :

Format : MPEG Audio

Format version : Version 1

Format profile : Layer 3

Mode : Joint stereo

Codec ID/Hint : MP3

Duration : 2h 44mn

Bit rate mode : Constant

Bit rate : 128 Kbps

Channel(s) : 2 channels

Sampling rate : 44.1 KHz

Stream size : 151 MiB (10%)

Scrape History ( seeds + peers )

Trackers

Refresh Leechers : Updated December 1, 2015

1. http://inferno.demonoid.com:3406/announce

2. http://nemesis.1337x.org/announce

3. http://tracker.torrent.to:2710/announce

4. http://9.rarbg.com:2710/announce

5. http://t1.pow7.com/announce

6. http://tracker.publicbt.com/announce

7. http://tracker.ilibr.org/announce

8. http://torrent-download.to:5869/announce

9. http://tpb.tracker.prq.to/announce

Comments

You must log in to add a comment.

Embed Code

Sharing Widget

Related torrents

FILENAME SIZE SEEDS PEERS ADDED UPD
[i] Lies: Diary Of An Escort (Sunny Leone, Vivid) XXX (DVDRip) 2.04 GB 17 12 2 years 9 months
[i] Sunny Leone Goddess (Vivid) XXX (DVDRip) 1.37 GB 11 3 2 years 1 month
[i] Sunny Leone Loves HD Porn 2 XXX DVDRip 699.42 MB 8 2 2 years 1 week
[i] Sunny.Leone.Erotica.XXX.DVDRip.XviD-STARLETS 1.37 GB 5 1 2 years 9 months
[i] Sunny Leone - Goddess DvdRip.wmv 1.34 GB 3 1 4 years 8 months
[i] The Other Side of Sunny 2008 DVDRip 1.37 GB 3 6 2 years 5 months
[i] Sunny Loves Matt (Vivid) XXX (DVDRip) 1.39 GB 2 1 2 years 6 months
[i] Sunny.Leone.Goddess.XXX.DVDRip.XviD-PLEASURE 1.37 GB 1 0 2 years 9 months
[i] Super Hot Sunny Morning (2015) 500 MB DvDrip x264 [DDR] 510.65 MB 1 1 1 year 2 days
[i] Super Hot Sunny Morning (2015) 720p DvDrip x264 [DDR] 1020.3 MB 1 4 1 year 2 days

Top Movies ( auto generated report )

FILENAME SIZE SEEDS PEERS ADDED UPD
[i] Ghostbusters 2016 1080p WEB-DL x264 AAC-JYK 3.02 GB 4082 1371 5 days 1 day
[i] Ghostbusters.2016.720p.WEBRip.x264.AAC-ETRG 876.3 MB 3004 1788 5 days 4 days
[i] Independence.Day.Resurgence.2016.720p.WEBRip.x264.AAC-ETRG 902.3 MB 2188 776 4 days 2 days
[i] The Purge Election Year 2016 1080p BluRay x264 DTS-JYK 2.74 GB 2107 1280 3 days 2 days
[i] Capsule (2015) 720p WEB-DL - 850MB - ShAaNiG 851.3 MB 488 183 5 days 7 hours
[i] The Magnificent Seven (2016) HDCAM XviD UnKnOwN 2.75 GB 3110 2731 1 day 6 hours
[i] Swiss Army Man (2016) 720p BluRay - 850MB - ShAaNiG 857.3 MB 1004 530 5 days 4 days
[i] Mike.and.Dave.Need.Wedding.Dates.2016.BRRip.XViD.AC3-ETRG 1.38 GB 746 825 1 day 23 hours
[i] The.Legend.of.Tarzan.2016.BRRip.XViD-ETRG 705.3 MB 733 680 5 days 4 days
[i] Swiss Army Man (2016) 1080p BluRay - 6CH - 1.75GB - ShAaNiG 1.75 GB 715 379 5 days 4 days
advertising ( remove )