Bit Torrent Scene a public file sharing platform Home Upload Categories Blog About

advertising ( remove )

The Complete Superman Collection [2010]

DOWNLOAD TORRENT DOWNLOAD DOWNLOAD ANONYMOUS

Posted on April 14, 2012 in Movies » Misc , verified torrent

Size: 4.39 GB , Seeds: 0 , Peers: 1 ( Updated January 30, 2016 - Refresh )

* Download via Magnet Link , * To download files you need a Bittorrent Client , * How to download torrents from Bit Torrent Scene?

advertising ( remove )

External Info

Trailer | Wikipedia | Other Info

Internal Files

The Complete Superman Collection [2010]
Superman The Movie.m4v   1.63 GB
Superman III.mp4   1.03 GB
Superman II.mp4   898.23 MB
Superman IV The Quest For Peace.mp4   869.15 MB
Media Info.txt   42.62 KB

Hash Code

5bdca37a46549079ab2a6ce6d1ba964cf4e77890

Description


Please download the media info file for info on all movies if u like. Any problems whit the sub colors can be solved by using another playback program.

General
Complete name : K:The Complete Superman Collection [2010]Superman The Movie.m4v
Format : MPEG-4
Format profile : Base Media / Version 2
Codec ID : mp42
File size : 1.63 GiB
Duration : 2h 25mn
Overall bit rate mode : Variable
Overall bit rate : 1 607 Kbps
Encoded date : UTC 2012-04-14 21:16:43
Tagged date : UTC 2012-04-14 21:35:57
Writing application : HandBrake 0.9.6 2012022800

Video
ID : 1
Format : AVC
Format/Info : Advanced Video Codec
Format profile : Main@L3.0
Format settings, CABAC : Yes
Format settings, ReFrames : 4 frames
Codec ID : avc1
Codec ID/Info : Advanced Video Coding
Duration : 2h 25mn
Bit rate mode : Variable
Bit rate : 1 200 Kbps
Width : 718 pixels
Height : 432 pixels
Display aspect ratio : 2.35:1
Original display aspect ratio : 2.35:1
Frame rate mode : Variable
Frame rate : 25.000 fps
Minimum frame rate : 7.813 fps
Maximum frame rate : 25.000 fps
Color space : YUV
Chroma subsampling : 4:2:0
Bit depth : 8 bits
Scan type : Progressive
Bits/(Pixel*Frame) : 0.155
Stream size : 1.22 GiB (75%)
Writing library : x264 core 120
Color primaries : BT.601-6 525, BT.1358 525, BT.1700 NTSC, SMPTE 170M
Transfer characteristics : BT.709-5, BT.1361
Matrix coefficients : BT.601-6 525, BT.1358 525, BT.1700 NTSC, SMPTE 170M

Audio
ID : 2
Format : AC-3
Format/Info : Audio Coding 3
Mode extension : CM (complete main)
Format settings, Endianness : Big
Codec ID : ac-3
Duration : 2h 25mn
Bit rate mode : Constant
Bit rate : 384 Kbps
Channel(s) : 6 channels
Channel positions : Front: L C R, Side: L R, LFE
Sampling rate : 48.0 KHz
Bit depth : 16 bits
Compression mode : Lossy
Delay relative to video : -168ms
Stream size : 399 MiB (24%)
Language : English

Torrent location

http://thepiratebay.se/torrent/7186516/The_Complete_Superman_Collection_[2010]

Scrape History ( seeds + peers )

Trackers

Refresh Leechers : Updated January 30, 2016

1. http://tracker.thepiratebay.org/announce

2. udp://tracker.openbittorrent.com:80

3. udp://tracker.ccc.de:80

4. udp://tracker.publicbt.com:80

Comments

You must log in to add a comment.

Embed Code

Sharing Widget

Related torrents

FILENAME SIZE SEEDS PEERS ADDED UPD
[i] The Complete Superman Collection BDRip 1080p x264 AAC - HoncHo ( 14.77 GB 7 8 5 years 7 months
[i] Superman The Complete Fleischer Collection 1941-43 Burntodisc repost 4.31 GB 7 1 5 months 2 days
[i] Superman The Complete Fleischer Collection 1941-43 Burntodisc 4.31 GB 1 5 11 months 5 months

Top Movies ( auto generated report )

FILENAME SIZE SEEDS PEERS ADDED UPD
[i] Now.You.See.Me.2.2016.1080p.BluRay.x264.AC3-JYK 2.93 GB 8132 5852 1 day 1 day
[i] Blood.Father.2016.HDRip.XViD-ETRG 711.3 MB 7851 3968 2 days 15 hours
[i] The Conjuring 2 (2016) 720p BluRay - 1.2GB - ShAaNiG 1.2 GB 7125 5490 1 day 16 hours
[i] Jason.Bourne.720p.HDTC.X264-NUKU
Movies - Action , Quality: Audio 8/10 - Video 8/10
2.49 GB 8020 6984 5 hours 3 hours
[i] Jason Bourne (2016) 720p HDTC 850MB - MkvCage 904.3 MB 4312 2138 1 day 12 hours
[i] Blood.Father.2016.720p.WEBRip.x264.AAC-ETRG 662.3 MB 4159 2580 1 day 6 hours
[i] War Dogs 2016 HD-TS x264-CPG 2.1 GB 3948 3105 1 day 5 hours
[i] The.Conjuring.2.2016.720p.BRRip.x264.AAC-ETRG 1004.3 MB 3885 3190 1 day 6 hours
[i] Our.Kind.of.Traitor.2016.HDRip.XviD.AC3-EVO 1.41 GB 3922 4367 5 hours 3 hours
[i] Genius.2016.HDRip.XviD.AC3-EVO 1.39 GB 2250 1125 4 days 3 days
advertising ( remove )