Bit Torrent Scene a public file sharing platform Home Upload Categories About

The Exorcist (1973) Extended Directors Cut 3D.mkv

DOWNLOAD TORRENT DOWNLOAD DOWNLOAD ANONYMOUS

Posted on December 14, 2012 in Movies » Horror , verified torrent

Size: 11.53 GB , Seeds: 0 , Peers: 0 ( Updated December 28, 2015 - Refresh )

* Download via Magnet Link , * To download files you need a Bittorrent Client , * How to download torrents from Bit Torrent Scene?

Loading...

Internal Files

The Exorcist (1973) Extended Directors Cut 3D.mkv
The Exorcist (1973) Extended Directors Cut 3D.mkv   11.52 GB

Hash Code

6c4d0703875acb9bcc2e5c4e9fe9ea7b0ee359b9

Description


The Exorcist (1973) Extended Directors Cut Blu ray rip 720p



DVDFAB 3D converted 3DTV SBS active shutter





http://www.imdb.com/title/tt0070047/









Video

ID : 1

Format : AVC

Format/Info : Advanced Video Codec

Format profile : High@L4.1

Format settings, CABAC : Yes

Format settings, ReFrames : 2 frames

Format settings, GOP : M=3, N=15

Codec ID : V_MPEG4/ISO/AVC

Duration : 2h 12mn

Bit rate mode : Variable

Bit rate : 11.7 Mbps

Maximum bit rate : 18.0 Mbps

Width : 1280 pixels

Height : 720 pixels

Display aspect ratio : 16:9

Frame rate : 23.976 fps

Color space : YUV

Chroma subsampling : 4:2:0

Bit depth : 8 bits

Scan type : Progressive

Bits/(Pixel*Frame) : 0.530

Stream size : 10.8 GiB (94%)

Default : Yes

Forced : No



Audio

ID : 2

Format : AC-3

Format/Info : Audio Coding 3

Mode extension : CM (complete main)

Codec ID : A_AC3

Duration : 2h 12mn

Bit rate mode : Constant

Bit rate : 512 Kbps

Channel(s) : 6 channels

Channel positions : Front: L C R, Side: L R, LFE

Sampling rate : 48.0 KHz

Bit depth : 16 bits

Compression mode : Lossy

Stream size : 485 MiB (4%)

Default : Yes

Forced : No




Torrent location

http://kat.ph/the-exorcist-1973-extended-directors-cut-3d-mkv-t6901447.html

Trackers

Refresh Leechers : Updated December 28, 2015

1. udp://tracker.publicbt.com:80/announce

2. udp://tracker.openbittorrent.com:80/announce

3. udp://fr33domtracker.h33t.com:3310/announce

4. udp://tracker.istole.it:80/announce

Comments

You must log in to add a comment.

Embed Code

Sharing Widget

Related torrents

FILENAME SIZE SEEDS PEERS ADDED UPD
[i] The Exorcist 1973 BluRay Extended Directors Cut 1080p 5.1 x265 HEVC-Qman[UTR] 2.83 GB 3 0 8 months 2 months
[i] The.Exorcist.1973.Extended.Directors.Cut.Bluray.1080p.DTS-HD-5.1 18.26 GB 2 5 2 years 7 months
[i] The Exorcist (1973) Extended Directors Cut.mkv 11.49 GB 0 1 4 years 9 months
[i] The Exorcist 1973 Extended Directors Cut BluRay 480p H264 702.5 MB 0 0 8 months 2 months

Top Movies ( auto generated report )

FILENAME SIZE SEEDS PEERS ADDED UPD
[i] Petes.Dragon.2016.BRRip.XViD-ETRG 712.3 MB 4607 1374 2 weeks 1 week
[i] Suicide Squad 2016 1080p WEB-DL x264 AC3-JYK 3.38 GB 757 55 2 weeks 2 days
[i] Suicide.Squad.2016.HDRip.XViD-ETRG 705.3 MB 570 173 2 weeks 5 days
[i] Sully.2016.HC.HDRip.XViD.AC3-ETRG 1.38 GB 1334 503 3 weeks 1 week
[i] Suicide.Squad.2016.EXTENDED.720p.WEBRip.x264.AAC-ETRG 1007.3 MB 1901 517 2 weeks 3 days
[i] Suicide.Squad.2016.EXTENDED.1080p.WEBRip.x264.AAC-ETRG 1.97 GB 535 80 2 weeks 3 days
[i] Sully.2016.720p.HC.HDRip.X264.AC3-EVO[EtHD] 2.51 GB 1099 144 3 weeks 1 week
[i] The.Girl.on.the.Train.2016.NEW.CAM.XViD.AC3-ETRG 1.4 GB 1430 444 3 weeks 1 week
[i] True.Memoirs.of.an.International.Assassin.2016.720p.WEBRip.x264.AAC-ETRG 736.3 MB 839 176 3 weeks 1 week
[i] Jason.Bourne.2016.BRRip.XviD-ETRG 706.82 MB 415 147 2 weeks 2 days
advertising ( remove )