Bit Torrent Scene a public file sharing platform Home Upload Categories Blog About

advertising ( remove )

The Turning Point [1952]

DOWNLOAD TORRENT DOWNLOAD DOWNLOAD ANONYMOUS

Posted on March 9, 2010 in Movies » Misc

Size: 1.03 GB , Seeds: 0 , Peers: 0 ( Updated November 15, 2015 - Refresh )

* Download via Magnet Link , * To download files you need a Bittorrent Client , * How to download torrents from Bit Torrent Scene?

advertising ( remove )

External Info

Trailer | Wikipedia | Other Info

Internal Files

THE TURNING POINT (1952)
The Turning Point.divx   1.03 GB
Torrent downloaded from Demonoid.com.txt   47 Byte

Hash Code

27a740fa65b364a635e136f1a1acae5ca7d0cc4a

Description


Movies : Crime : Other quality : English
.
http://www.imdb.com/title/tt0045267/

Special prosecutor John Conroy hopes to combat organized crime in his city, and appoints his cop father Matt as chief investigator. John doesn't understand why Matt is reluctant, but cynical reporter Jerry McKibbon thinks he knows: he's seen Matt with mob lieutenant Harrigan. Jerry's friendship for John is tested by the question of what to do about Matt, and by his attraction to John's girl Amanda. Meanwhile, the threatened racketeers adopt increasingly violent means of defense.

General
Complete name : Z:SeedboxTHE TURNING POINT (1952)The Turning Point.divx
Format : DivX
Format/Info : Hack of AVI
File size : 1.03 GiB
Duration : 1h 25mn
Overall bit rate : 1 727 Kbps

Video
Format : MPEG-4 Visual
Format settings, BVOP : Yes
Format settings, QPel : No
Format settings, GMC : No warppoints
Format settings, Matrix : Default
Muxing mode : Packed bitstream
Codec ID : DX50
Codec ID/Hint : DivX 5
Duration : 1h 25mn
Bit rate : 1 590 Kbps

Width : 640 pixels
Height : 480 pixels

Display aspect ratio : 4/3
Frame rate : 23.979 fps
Resolution : 24 bits
Colorimetry : 4:2:0
Scan type : Progressive

Bits/(Pixel*Frame) : 0.216
Stream size : 967 MiB (92%)
Title : Main
Writing library : DivX 2816

Audio
Format : MPEG Audio
Format version : Version 1
Format profile : Layer 3
Codec ID : 55
Codec ID/Hint : MP3
Duration : 1h 25mn
Bit rate mode : Constant
Bit rate : 128 Kbps
Channel(s) : 2 channels
Sampling rate : 48.0 KHz
Resolution : 16 bits
Stream size : 77.9 MiB (7%)
Alignment : Split accross interleaves
Interleave, duration : 42 ms (1.00 video frame)
Interleave, preload duration : 500 ms
Title : Audio
Writing library : LAME3.97

Scrape History ( seeds + peers )

Trackers

Refresh Leechers : Updated November 15, 2015

1. http://tracker.thepiratebay.org/announce

2. udp://tracker.thepiratebay.org:80/announce

3. http://inferno.demonoid.com:3393/announce

4. udp://tracker.openbittorrent.com:80/announce

5. http://tracker.openbittorrent.com/announce

Comments

You must log in to add a comment.

Embed Code

Sharing Widget

Related torrents

FILENAME SIZE SEEDS PEERS ADDED UPD
[i] [R.G. Mechanics] Turning Point - Fall of Liberty 2.7 GB 13 4 3 years 5 months
[i] The Vampire Diaries S01E10 The Turning Point HDTV XviD-FQM [eztv] 350.65 MB 10 6 6 years 9 months
[i] Vigilante - Turning Point (2016) FLAC 316.25 MB 10 0 4 months 1 month
[i] The Turning Point 1977 720p BRRip x264-PLAYNOW 889.32 MB 7 1 3 years 6 months
[i] HUNTA-111 Its No Good Brother!Likely Chaimasu Tsu! The Turning Point Of Life To Me Had No Edge To The Woman!Suddenly Remarried Father, Was Able To Sister School Girls! !Moreover Moreover Moreover, Big Tits On Super Kawaiku!Transfer Place When All Is 2.59 GB 7 2 6 months 1 month
[i] The.Turning.Point.1977.720p.BluRay.x264-NORDiCHD [PublicHD] 4.37 GB 2 1 3 years 6 months
[i] Chuck Wicks-Turning Point[2015][MP3-320 kbps][GLODLS]
posted by sj786 in Music - Pop
92.43 MB 2 0 5 months 2 months
[i] Mayday.Air.Crash.Investigation.S11E06.Turning.Point.WEBRIP.Xvid.avi 198.82 MB 1 0 4 years 7 months
[i] John Mayall & The Bluesbreakers - 2004 - The Turning Point Soundtrack (2CD) [mp3@320] 315.57 MB 1 1 2 months 2 weeks
[i] Animal.Planet.Gorilla.School.Turning.Point.HDTV.XviD-ViLD 182.07 MB 0 0 5 years 8 months

Top Movies ( auto generated report )

FILENAME SIZE SEEDS PEERS ADDED UPD
[i] Now.You.See.Me.2.2016.1080p.BluRay.x264.AC3-JYK 2.93 GB 5623 2377 3 days 17 hours
[i] Jason.Bourne.720p.HDTC.X264-NUKU
Movies - Action , Quality: Audio 8/10 - Video 8/10
2.49 GB 8305 4566 1 day 18 hours
[i] Blood.Father.2016.HDRip.XViD-ETRG 711.3 MB 7851 3968 3 days 2 days
[i] The Conjuring 2 (2016) 720p BluRay - 1.2GB - ShAaNiG 1.2 GB 7125 5490 3 days 2 days
[i] Jason Bourne (2016) 720p HDTC 850MB - MkvCage 904.3 MB 3847 1228 2 days 20 hours
[i] Blood.Father.2016.720p.WEBRip.x264.AAC-ETRG 662.3 MB 4159 2580 2 days 1 day
[i] War Dogs 2016 HD-TS x264-CPG 2.1 GB 3948 3105 2 days 1 day
[i] Our.Kind.of.Traitor.2016.HDRip.XviD.AC3-EVO 1.41 GB 4183 3294 1 day 18 hours
[i] The.Conjuring.2.2016.720p.BRRip.x264.AAC-ETRG 1004.3 MB 3885 3190 2 days 1 day
[i] The.Conjuring.2.2016.BRRip.XViD.AC3-ETRG 1.41 GB 2498 2579 2 days 1 day
advertising ( remove )