Bit Torrent Scene a public file sharing platform Home Upload Categories Blog About

advertising ( remove )

The Wild [2006] [Dual-Audio] [English+Hindi]_Dip1990

DOWNLOAD TORRENT DOWNLOAD DOWNLOAD ANONYMOUS

Posted on August 22, 2010 in Movies » Animation

Size: 752.3 MB , Seeds: 0 , Peers: 4 ( Updated November 27, 2015 - Refresh )

* Download via Magnet Link , * To download files you need a Bittorrent Client , * How to download torrents from Bit Torrent Scene?

advertising ( remove )

Internal Files

The Wild
The Wild [2006] [Dual-Audio] [English+Hindi]_Dip1990.mkv   751.44 MB
10gebz4.jpg   123.17 KB
The Wild [2006] [Dual-Audio] [English+Hindi]_Dip1990.srt   87.22 KB
The Wild.doc   3.95 KB

Hash Code

b386bdf965e2e0e8090fb8337acd953d38397246

Description


Dip1990


The Wild [2006] [Dual-Audio] [English+Hindi]_Dip1990


TiTLE......[ The Wild
YEAR.......[ 2006
GENRE......[ Animation / Adventure / Comedy / Family
RUNTiME....[ 01:21:39
iMDB RATE..[ 5.7/10 (3,932 votes)
DVDRELDATE.[ September 12, 2006
iMDB URL...[ http://www.imdb.com/title/tt0405469/
SOURCE.....[ NTSC DVD
COUNTRY: USA
DIRECTOR: Steve \'Spaz\' Williams
SCREENWRITER: Ed Decter, Mark Gibson,
Philip Halprin, John J. Strauss
COMPOSER: Alan Silvestri
CAST: Animation
STUDIO/PRODUCER: Walt Disney Pictures

A teenage lion living in the New York Zoo
accidentally gets trapped inside a crate and
shipped to Africa. A group of his zoo buddies,
including another lion, a giraffe, a snake and
a koala team up to save him.

General
Complete name : The Wild [2006] [Dual-Audio] [English+Hindi]_Dip1990.mkv
Format : Matroska
File size : 751 MiB
Duration : 1h 21mn
Overall bit rate : 1 287 Kbps
Encoded date : UTC 2010-05-25 15:17:48
Writing application : mkvmerge v3.4.0 (\'Rapunzel\') built on May 15 2010 09:38:20
Writing library : libebml v0.8.0 + libmatroska v0.9.0

Video #1
ID : 1
Format : MPEG-4 Visual
Format profile : AdvancedSimple@L5
Format settings, BVOP : Yes
Format settings, QPel : No
Format settings, GMC : No warppoints
Format settings, Matrix : Default (H.263)
Codec ID : DX50
Codec ID/Hint : DivX 5
Duration : 1h 21mn
Bit rate : 973 Kbps
Width : 556 pixels
Height : 306 pixels
Display aspect ratio : 16:9
Frame rate : 23.976 fps
Resolution : 24 bits
Colorimetry : 4:2:0
Scan type : Progressive
Bits/(Pixel*Frame) : 0.239
Stream size : 568 MiB (76%)
Title : The Wild
Writing library : XviD 1.0.3 (UTC 2004-12-20)
Language : English

Audio #2
ID : 2
Format : MPEG Audio
Format version : Version 1
Format profile : Layer 3
Codec ID : A_MPEG/L3
Codec ID/Hint : MP3
Duration : 1h 21mn
Bit rate mode : Constant
Bit rate : 160 Kbps
Channel(s) : 2 channels
Sampling rate : 48.0 KHz
Resolution : 16 bits
Stream size : 93.4 MiB (12%)
Title : The Wild - Hindi
Language : Hindi

Audio #3
ID : 3
Format : MPEG Audio
Format version : Version 1
Format profile : Layer 3
Codec ID : A_MPEG/L3
Codec ID/Hint : MP3
Duration : 1h 21mn
Bit rate mode : Constant
Bit rate : 128 Kbps
Channel(s) : 1 channel
Sampling rate : 48.0 KHz
Resolution : 16 bits
Stream size : 74.8 MiB (10%)
Title : The Wild - English
Language : English

Screens:

SCREENSHOT
SCREENSHOT
SCREENSHOT
SCREENSHOT
SCREENSHOT
SCREENSHOT
SCREENSHOT
SCREENSHOT
SCREENSHOT
SCREENSHOT

Scrape History ( seeds + peers )

Trackers

Refresh Leechers : Updated November 27, 2015

1. http://tracker.thepiratebay.org/announce

2. udp://tracker.thepiratebay.org:80/announce

3. http://tracker.openbittorrent.com/announce

4. udp://tracker.openbittorrent.com:80/announce

5. udp://tracker.publicbt.com:80/announce

6. http://tracker.publicbt.com/announce

7. http://denis.stalker.h3q.com/announce

8. http://genesis.1337x.org:1337/announce

9. http://nemesis.1337x.org/announce

10. http://exodus.1337x.org/announce

Comments

You must log in to add a comment.

Embed Code

Sharing Widget

Top Movies ( auto generated report )

FILENAME SIZE SEEDS PEERS ADDED UPD
[i] Now.You.See.Me.2.2016.720p.BRRip.x264.AAC-ETRG 1018.3 MB 16271 9790 4 days 3 days
[i] The.Jungle.Book.2016.TRUEFRENCH.BDRIP.XViD-eVe 1.35 GB 10247 989 5 days 1 day
[i] The.Wave.2016.TRUEFRENCH.DVDRIP.XViD-ACOOL 1.06 GB 8183 1207 5 days 4 days
[i] Now You See Me 2 (2016) 1080p BluRay - 6CH - 2.2GB - ShAaNiG 2.3 GB 6579 3250 3 days 2 days
[i] Imperium.2016.HDRip.XViD-ETRG 707.3 MB 6556 5338 4 days 4 days
[i] Sausage.Party.2016.HDCam.HQ-Mic.Xvid.AC3.UnKnOwN.Hive-CM8 1.31 GB 5392 3118 4 days 3 days
[i] Alleycats.2016.HDRip.XViD-ETRG 707.3 MB 3091 2301 3 days 2 days
[i] Beyond.the.Call.of.Duty.2016.DVDRip.XviD-EVO 1.2 GB 2402 1155 4 days 3 days
[i] Billionaire.Ransom.2016.HDRip.XViD-ETRG 707.3 MB 2370 1282 3 days 2 days
[i] Happy Bhag Jayegi (2016) DesiScr 1CDRIP x264 AAC [DDR] 722.3 MB 2228 5914 3 days 2 days
advertising ( remove )